<?xml version="1.0" standalone="no"?>
<!DOCTYPE svg PUBLIC "-//W3C//DTD SVG 1.1//EN" "http://www.w3.org/Graphics/SVG/1.1/DTD/svg11.dtd" >
<svg xmlns="http://www.w3.org/2000/svg">
<metadata>Generated by IcoMoon</metadata>
<defs>
<font id="icomoon" horiz-adv-x="1024">
<font-face units-per-em="1024" ascent="1024" descent="0" />
<missing-glyph horiz-adv-x="1024" />
<glyph unicode="&#x20;" horiz-adv-x="0" d="" />
<glyph unicode="&#xe900;" glyph-name="arrow-left" d="M831.792 539.812v-55.614q0-23.030-14.12-39.325t-36.715-16.296h-305.891l127.307-127.745q16.511-15.642 16.511-39.103t-16.511-39.103l-32.587-33.022q-16.076-16.076-39.103-16.076-22.592 0-39.54 16.076l-282.861 283.291q-16.076 16.076-16.076 39.103 0 22.592 16.076 39.54l282.861 282.424q16.511 16.511 39.54 16.511 22.592 0 39.103-16.511l32.587-32.154q16.511-16.511 16.511-39.54t-16.511-39.54l-127.307-127.307h305.891q22.592 0 36.715-16.296t14.12-39.325z" />
<glyph unicode="&#xe901;" glyph-name="arrow-right" d="M849.071 511.997q0-24.726-16.948-41.676l-298.141-298.141q-17.86-16.948-41.676-16.948-23.355 0-41.217 16.948l-34.35 34.35q-17.401 17.401-17.401 41.676t17.401 41.676l134.187 134.187h-322.416q-23.815 0-38.697 17.174t-14.884 41.448v58.623q0 24.274 14.884 41.448t38.697 17.174h322.416l-134.187 134.646q-17.401 16.486-17.401 41.217t17.401 41.217l34.35 34.35q17.401 17.401 41.217 17.401 24.274 0 41.676-17.401l298.141-298.141q16.948-16.029 16.948-41.217z" />
<glyph unicode="&#xe902;" glyph-name="arrow-up" d="M866.822 492.415q0-23.231-16.854-40.993l-34.161-34.161q-17.309-17.309-41.448-17.309-24.597 0-40.993 17.309l-133.912 133.457v-320.662q0-23.686-17.081-38.49t-41.222-14.803h-58.303q-24.142 0-41.222 14.803t-17.081 38.49v320.662l-133.912-133.457q-16.398-17.309-40.993-17.309t-40.993 17.309l-34.161 34.161q-17.309 17.309-17.309 40.993 0 24.142 17.309 41.448l296.52 296.52q15.942 16.854 40.993 16.854 24.597 0 41.448-16.854l296.52-296.52q16.854-17.765 16.854-41.448z" />
<glyph unicode="&#xe903;" glyph-name="arrow-down" d="M867.494 529.112q0-24.186-16.885-41.073l-297.082-297.539q-17.798-16.885-41.528-16.885-24.186 0-41.073 16.885l-297.082 297.539q-17.342 16.427-17.342 41.073 0 24.186 17.342 41.528l33.77 34.225q17.798 16.885 41.528 16.885 24.186 0 41.073-16.885l134.166-134.166v321.27q0 23.73 17.342 41.073t41.073 17.342h58.411q23.73 0 41.073-17.342t17.342-41.073v-321.27l134.166 134.166q16.885 16.885 41.073 16.885 23.73 0 41.528-16.885l34.225-34.225q16.885-17.798 16.885-41.528z" />
<glyph unicode="&#xe904;" glyph-name="chevron-left" d="M744.313 759.203l-247.208-247.208 247.208-247.208q8.845-8.845 8.845-20.95t-8.845-20.95l-77.281-77.281q-8.845-8.845-20.95-8.845t-20.95 8.845l-345.444 345.444q-8.845 8.845-8.845 20.95t8.845 20.95l345.444 345.444q8.845 8.845 20.95 8.845t20.95-8.845l77.281-77.281q8.845-8.845 8.845-20.95t-8.845-20.95z" />
<glyph unicode="&#xe905;" glyph-name="chevron-right" d="M744.312 491.053l-345.443-345.443q-8.845-8.845-20.95-8.845t-20.95 8.845l-77.281 77.281q-8.845 8.845-8.845 20.95t8.845 20.95l247.209 247.209-247.209 247.209q-8.845 8.845-8.845 20.95t8.845 20.95l77.281 77.281q8.845 8.845 20.95 8.845t20.95-8.845l345.443-345.443q8.845-8.845 8.845-20.95t-8.845-20.95z" />
<glyph unicode="&#xe906;" glyph-name="chevron-up" d="M896.828 348.926l-81.171-80.682q-9.291-9.291-22.004-9.291t-22.004 9.291l-259.649 259.649-259.649-259.649q-9.291-9.291-22.004-9.291t-22.004 9.291l-81.171 80.682q-9.291 9.291-9.291 22.248t9.291 22.248l362.824 362.335q9.291 9.291 22.004 9.291t22.004-9.291l362.824-362.335q9.291-9.291 9.291-22.248t-9.291-22.248z" />
<glyph unicode="&#xe907;" glyph-name="chevron-down" d="M864.385 620.582l-332.236-331.788q-8.508-8.508-20.149-8.508t-20.149 8.508l-332.236 331.788q-8.508 8.508-8.508 20.372t8.508 20.372l74.328 73.88q8.508 8.508 20.149 8.508t20.149-8.508l237.759-237.759 237.759 237.759q8.508 8.508 20.149 8.508t20.149-8.508l74.328-73.88q8.508-8.508 8.508-20.372t-8.508-20.372z" />
<glyph unicode="&#xe908;" glyph-name="link" horiz-adv-x="1015" d="M831.372 312.65q0 20.765-14.536 35.301l-107.981 107.981q-14.536 14.536-35.301 14.536-21.804 0-37.379-16.612 1.558-1.558 9.863-9.603t11.162-11.162 7.787-9.863 6.749-13.237 1.817-14.276q0-20.765-14.536-35.301t-35.301-14.536q-7.787 0-14.276 1.817t-13.237 6.749-9.863 7.787-11.162 11.162-9.603 9.863q-17.131-16.094-17.131-37.897 0-20.765 14.536-35.301l106.942-107.462q14.017-14.017 35.301-14.017 20.765 0 35.301 13.497l76.314 75.795q14.536 14.536 14.536 34.782zM466.416 678.645q0 20.765-14.536 35.301l-106.942 107.462q-14.536 14.536-35.301 14.536-20.246 0-35.301-14.017l-76.314-75.795q-14.536-14.536-14.536-34.782 0-20.765 14.536-35.301l107.981-107.981q14.017-14.017 35.301-14.017 21.804 0 37.379 16.094-1.558 1.558-9.863 9.603t-11.162 11.162-7.787 9.863-6.749 13.237-1.817 14.276q0 20.765 14.536 35.301t35.301 14.536q7.787 0 14.276-1.817t13.237-6.749 9.863-7.787 11.162-11.162 9.603-9.863q17.131 16.094 17.131 37.897zM931.048 312.65q0-62.297-44.127-105.386l-76.314-75.795q-43.089-43.089-105.386-43.089-62.817 0-105.905 44.127l-106.942 107.462q-43.089 43.089-43.089 105.386 0 63.854 45.684 108.501l-45.684 45.684q-44.647-45.684-107.981-45.684-62.297 0-105.905 43.608l-107.981 107.981q-43.608 43.608-43.608 105.905t44.127 105.386l76.314 75.795q43.089 43.089 105.386 43.089 62.817 0 105.905-44.127l106.942-107.462q43.089-43.089 43.089-105.386 0-63.854-45.684-108.501l45.684-45.684q44.647 45.684 107.981 45.684 62.297 0 105.905-43.608l107.981-107.981q43.608-43.608 43.608-105.905z" />
<glyph unicode="&#xe909;" glyph-name="download" horiz-adv-x="1033" d="M670.338 465.872q0 6.728-4.324 11.052t-11.052 4.324h-107.636v169.142q0 6.247-4.565 10.811t-10.811 4.565h-92.26q-6.247 0-10.811-4.565t-4.565-10.811v-169.142h-107.636q-6.247 0-10.811-4.565t-4.565-10.811q0-6.728 4.324-11.052l169.142-169.142q4.324-4.324 11.052-4.324t11.052 4.324l168.663 168.663q4.805 5.765 4.805 11.533zM977.87 358.236q0-76.403-54.059-130.462t-130.462-54.059h-522.804q-88.896 0-152.084 63.188t-63.188 152.084q0 62.47 33.637 115.324t90.338 79.286q-0.96 14.416-0.96 20.662 0 101.871 72.079 173.947t173.947 72.079q74.962 0 137.188-41.806t90.578-111q34.116 29.792 79.767 29.792 50.935 0 86.974-36.038t36.038-86.974q0-36.52-19.703-66.311 62.47-14.897 102.59-65.111t40.124-114.605z" />
<glyph unicode="&#xe90a;" glyph-name="link-external" d="M768 256h-512v510.094l128 1.906v128h-256v-768h768v320h-128v-192zM512 896l128-128-192-192 128-128 192 192 128-128v384h-384z" />
<glyph unicode="&#xe90b;" glyph-name="menu" horiz-adv-x="1027" d="M875.581 300.799v-60.342q0-12.256-8.958-21.214t-21.214-8.958h-663.772q-12.256 0-21.214 8.958t-8.958 21.214v60.342q0 12.256 8.958 21.214t21.214 8.958h663.772q12.256 0 21.214-8.958t8.958-21.214zM875.581 542.172v-60.342q0-12.256-8.958-21.214t-21.214-8.958h-663.772q-12.256 0-21.214 8.958t-8.958 21.214v60.342q0 12.256 8.958 21.214t21.214 8.958h663.772q12.256 0 21.214-8.958t8.958-21.214zM875.581 783.543v-60.342q0-12.256-8.958-21.214t-21.214-8.958h-663.772q-12.256 0-21.214 8.958t-8.958 21.214v60.342q0 12.256 8.958 21.214t21.214 8.958h663.772q12.256 0 21.214-8.958t8.958-21.214z" />
<glyph unicode="&#xe90c;" glyph-name="close" horiz-adv-x="1039" d="M816.38 331.145q0-19.983-13.988-33.973l-67.946-67.946q-13.988-13.988-33.973-13.988t-33.973 13.988l-146.882 146.882-146.882-146.882q-13.988-13.988-33.973-13.988t-33.973 13.988l-67.946 67.946q-13.988 13.988-13.988 33.973t13.988 33.973l146.882 146.882-146.882 146.882q-13.988 13.988-13.988 33.973t13.988 33.973l67.946 67.946q13.988 13.988 33.973 13.988t33.973-13.988l146.882-146.882 146.882 146.882q13.988 13.988 33.973 13.988t33.973-13.988l67.946-67.946q13.988-13.988 13.988-33.973t-13.988-33.973l-146.882-146.882 146.882-146.882q13.988-13.988 13.988-33.973z" />
<glyph unicode="&#xe90d;" glyph-name="home" d="M783.676 466.013v-226.396q0-12.262-8.961-21.224t-21.224-8.961h-181.119v181.119h-120.748v-181.119h-181.119q-12.262 0-21.224 8.961t-8.961 21.224v226.396q0 0.472 0.235 1.414t0.235 1.414l271.205 223.568 271.205-223.568q0.472-0.944 0.472-2.829zM888.857 498.559l-29.243-34.903q-3.773-4.246-9.906-5.188h-1.414q-6.133 0-9.906 3.301l-326.39 272.15-326.39-272.15q-5.66-3.773-11.32-3.301-6.133 0.944-9.906 5.188l-29.243 34.903q-3.773 4.715-3.301 11.085t5.188 10.141l339.123 282.526q15.094 12.262 35.847 12.262t35.847-12.262l115.087-96.219v91.974q0 6.603 4.246 10.848t10.848 4.246h90.559q6.603 0 10.848-4.246t4.246-10.848v-192.439l103.294-85.842q4.715-3.773 5.188-10.141t-3.301-11.085z" />
<glyph unicode="&#xe90e;" glyph-name="info" horiz-adv-x="1027" d="M649.348 265.974v-61.506q0-12.493-9.129-21.622t-21.622-9.129h-246.026q-12.493 0-21.622 9.129t-9.129 21.622v61.506q0 12.493 9.129 21.622t21.622 9.129h30.754v184.521h-30.754q-12.493 0-21.622 9.129t-9.129 21.622v61.506q0 12.493 9.129 21.622t21.622 9.129h184.521q12.493 0 21.622-9.129t9.129-21.622v-276.778h30.754q12.493 0 21.622-9.129t9.129-21.622zM587.842 819.533v-92.26q0-12.493-9.129-21.622t-21.622-9.129h-123.012q-12.493 0-21.622 9.129t-9.129 21.622v92.26q0 12.493 9.129 21.622t21.622 9.129h123.012q12.493 0 21.622-9.129t9.129-21.622z" />
<glyph unicode="&#xe90f;" glyph-name="alert" horiz-adv-x="984" d="M584.45 312.104v-107.636q0-12.493-9.129-21.622t-21.622-9.129h-123.012q-12.493 0-21.622 9.129t-9.129 21.622v107.636q0 12.493 9.129 21.622t21.622 9.129h123.012q12.493 0 21.622-9.129t9.129-21.622zM598.866 819.533l-13.455-369.038q-0.481-12.493-9.851-21.622t-21.863-9.129h-123.012q-12.493 0-21.863 9.129t-9.851 21.622l-13.455 369.038q-0.481 12.493 8.41 21.622t21.383 9.129h153.766q12.493 0 21.383-9.129t8.41-21.622z" />
<glyph unicode="&#xe910;" glyph-name="folder" horiz-adv-x="1036" d="M867.463 606.061v-295.621q0-38.631-27.714-66.346t-66.346-27.714h-510.615q-38.631 0-66.346 27.714t-27.714 66.346v403.116q0 38.631 27.714 66.346t66.346 27.714h134.372q38.631 0 66.346-27.714t27.714-66.346v-13.436h282.18q38.631 0 66.346-27.714t27.714-66.346z" />
<glyph unicode="&#xe911;" glyph-name="file" horiz-adv-x="1027" d="M623.239 676.571v202.286q9.427-6.002 15.429-11.998l174.859-174.859q6.002-6.002 11.998-15.429h-202.286zM568.379 662.857q0-17.145 11.998-29.143t29.143-11.998h233.145v-452.571q0-17.145-11.998-29.143t-29.143-11.998h-576q-17.145 0-29.143 11.998t-11.998 29.143v685.716q0 17.145 11.998 29.143t29.143 11.998h342.855v-233.145z" />
<glyph unicode="&#xe912;" glyph-name="attachment" horiz-adv-x="1018" d="M889.406 246.225q0-63.59-42.937-106.527t-106.527-42.937q-73.373 0-127.724 54.351l-422.304 421.761q-61.416 62.503-61.416 147.29 0 86.417 59.786 146.747t146.203 60.331q85.874 0 148.377-61.416l328.82-329.365q5.435-5.435 5.435-11.957 0-8.696-16.577-25.273t-25.273-16.577q-7.066 0-12.501 5.435l-329.365 329.908q-42.937 41.85-98.375 41.85-57.611 0-97.288-40.763t-39.676-98.375q0-57.068 41.307-98.375l421.761-422.304q34.241-34.241 78.808-34.241 34.784 0 57.611 22.827t22.827 57.611q0 44.567-34.241 78.808l-315.777 315.777q-14.131 13.044-32.611 13.044-15.761 0-26.089-10.327t-10.327-26.089q0-17.39 13.588-32.069l222.837-222.837q5.435-5.435 5.435-11.957 0-8.696-16.848-25.545t-25.545-16.848q-6.522 0-11.957 5.435l-222.837 222.837q-34.241 33.154-34.241 80.983 0 44.567 30.979 75.548t75.548 30.979q47.829 0 80.983-34.241l315.777-315.777q54.351-53.263 54.351-127.724z" />
<glyph unicode="&#xe913;" glyph-name="power" horiz-adv-x="1027" d="M893.305 480.351q0-77.143-30.165-147.363t-81.099-121.154-121.154-81.099-147.363-30.165-147.363 30.165-121.154 81.099-81.099 121.154-30.165 147.363q0 89.999 39.808 169.615t112.005 133.517q21.263 15.824 47.224 12.363t41.291-24.725q15.824-20.769 12.116-46.731t-24.479-41.785q-48.461-36.595-74.916-89.506t-26.455-112.748q0-51.428 20.028-98.159t54.147-80.853 80.853-54.147 98.159-20.028 98.159 20.028 80.853 54.147 54.147 80.853 20.028 98.159q0 59.834-26.455 112.748t-74.916 89.506q-20.769 15.824-24.479 41.785t12.116 46.731q15.329 21.263 41.538 24.725t46.978-12.363q72.197-53.901 112.005-133.517t39.808-169.615zM576.821 860.132v-316.484q0-25.715-18.792-44.505t-44.505-18.792-44.505 18.792-18.792 44.505v316.484q0 25.715 18.792 44.505t44.505 18.792 44.505-18.792 18.792-44.505z" />
<glyph unicode="&#xe914;" glyph-name="lock" d="M388.987 539.7h246.026v92.26q0 50.935-36.038 86.974t-86.974 36.038-86.974-36.038-36.038-86.974v-92.26zM788.778 493.57v-276.778q0-19.221-13.454-32.674t-32.674-13.454h-461.298q-19.221 0-32.674 13.454t-13.454 32.674v276.778q0 19.221 13.454 32.674t32.674 13.454h15.376v92.26q0 88.415 63.429 151.843t151.843 63.429 151.843-63.429 63.429-151.843v-92.26h15.376q19.221 0 32.674-13.454t13.454-32.674z" />
<glyph unicode="&#xe915;" glyph-name="unlock" d="M746.286 546.455q19.524 0 33.19-13.666t13.666-33.19v-281.143q0-19.524-13.666-33.19t-33.19-13.666h-468.57q-19.524 0-33.19 13.666t-13.666 33.19v281.143q0 19.524 13.666 33.19t33.19 13.666h15.619v156.19q0 90.297 64.184 154.481t154.481 64.184 154.481-64.184 64.184-154.481q0-12.691-9.273-21.964t-21.964-9.273h-31.237q-12.691 0-21.964 9.273t-9.273 21.964q0 51.739-36.608 88.345t-88.345 36.608-88.345-36.608-36.608-88.345v-156.19h359.238z" />
<glyph unicode="&#xe916;" glyph-name="rotate-left" horiz-adv-x="1027" d="M888.382 511.999q0-76.146-29.773-145.452t-80.044-119.582-119.582-80.044-145.452-29.773q-83.952 0-159.609 35.387t-128.859 99.814q-3.419 4.88-3.173 10.982t4.149 10.008l66.868 67.36q4.88 4.393 12.202 4.393 7.809-0.974 11.226-5.858 35.63-46.369 87.37-71.753t109.821-25.383q50.762 0 96.887 19.768t79.803 53.445 53.445 79.803 19.768 96.887-19.768 96.887-53.445 79.803-79.803 53.445-96.887 19.768q-47.834 0-91.763-17.328t-78.096-49.543l66.868-67.36q15.131-14.644 6.833-33.678-8.298-19.524-28.797-19.524h-218.667q-12.691 0-21.964 9.273t-9.273 21.964v218.667q0 20.499 19.524 28.797 19.037 8.298 33.678-6.833l63.453-62.965q52.227 49.297 119.338 76.388t138.862 27.088q76.146 0 145.452-29.773t119.582-80.044 80.044-119.582 29.773-145.452z" />
<glyph unicode="&#xe917;" glyph-name="rotate-right" horiz-adv-x="1027" d="M888.382 824.381v-218.667q0-12.691-9.273-21.964t-21.964-9.273h-218.667q-20.499 0-28.797 19.524-8.298 19.037 6.833 33.678l67.358 67.358q-72.238 66.868-170.346 66.868-50.762 0-96.887-19.768t-79.803-53.445-53.445-79.803-19.768-96.887 19.768-96.887 53.445-79.803 79.803-53.445 96.887-19.768q58.082 0 109.821 25.382t87.37 71.751q3.418 4.88 11.226 5.858 6.833 0 12.203-4.393l66.868-67.358q4.393-3.905 4.637-10.007t-3.662-10.982q-53.202-64.428-128.858-99.814t-159.608-35.387q-76.144 0-145.452 29.775t-119.582 80.046-80.046 119.582-29.775 145.452 29.775 145.452 80.046 119.582 119.582 80.046 145.452 29.775q71.751 0 138.862-27.088t119.338-76.388l63.453 62.965q14.154 15.131 34.168 6.833 19.037-8.298 19.037-28.797z" />
<glyph unicode="&#xe918;" glyph-name="clock" horiz-adv-x="1027" d="M575.998 683.809v-218.668q0-6.833-4.393-11.226t-11.226-4.393h-156.19q-6.833 0-11.226 4.393t-4.393 11.226v31.237q0 6.833 4.393 11.226t11.226 4.393h109.334v171.809q0 6.833 4.393 11.226t11.226 4.393h31.237q6.833 0 11.226-4.393t4.393-11.226zM779.047 512q0 72.238-35.63 133.251t-96.643 96.643-133.251 35.63-133.251-35.63-96.643-96.643-35.63-133.251 35.63-133.251 96.643-96.643 133.251-35.63 133.251 35.63 96.643 96.643 35.63 133.251zM888.381 512q0-102.013-50.274-188.162t-136.422-136.422-188.162-50.274-188.162 50.274-136.422 136.422-50.274 188.162 50.274 188.162 136.422 136.422 188.162 50.274 188.162-50.274 136.422-136.422 50.274-188.162z" />
<glyph unicode="&#xe919;" glyph-name="heart" d="M512 137.142q-12.691 0-21.477 8.786l-304.572 293.834q-4.88 3.905-13.422 12.691t-27.088 31.971-33.19 47.59-26.113 59.060-11.47 67.358q0 107.381 61.987 167.905t171.321 60.525q30.263 0 61.744-10.495t58.572-28.31 46.612-33.434 37.096-33.19q17.571 17.571 37.096 33.19t46.612 33.434 58.572 28.31 61.744 10.495q109.334 0 171.321-60.525t61.987-167.905q0-107.869-111.774-219.643l-304.083-292.856q-8.786-8.786-21.477-8.786z" />
<glyph unicode="&#xe91a;" glyph-name="heart-o" d="M886.858 658.43q0 39.536-10.495 69.798t-26.845 48.078-39.779 29.041-45.881 15.131-47.834 3.905-54.667-12.447-53.936-31.237-42.22-35.143-29.285-30.019q-8.786-10.738-23.917-10.738t-23.917 10.738q-11.713 13.666-29.285 30.019t-42.22 35.143-53.936 31.237-54.667 12.447-47.834-3.905-45.881-15.131-39.779-29.041-26.845-48.078-10.495-69.798q0-81.999 91.275-173.274l283.583-273.333 283.096 272.845q91.763 91.763 91.763 173.762zM949.333 658.43q0-107.869-111.774-219.643l-304.083-292.856q-8.786-8.786-21.477-8.786t-21.477 8.786l-304.572 293.834q-4.88 3.905-13.422 12.691t-27.088 31.971-33.19 47.59-26.113 59.060-11.47 67.358q0 107.381 61.987 167.905t171.321 60.525q30.263 0 61.744-10.495t58.572-28.31 46.612-33.434 37.096-33.19q17.571 17.571 37.096 33.19t46.612 33.434 58.572 28.31 61.744 10.495q109.334 0 171.321-60.525t61.987-167.905z" />
<glyph unicode="&#xe91b;" glyph-name="star" horiz-adv-x="1036" d="M926.419 599.603q0-10.798-12.76-23.557l-178.152-173.735 42.207-245.386q0.49-3.436 0.49-9.815 0-10.305-5.154-17.424t-14.969-7.116q-9.324 0-19.632 5.888l-220.358 115.822-220.358-115.822q-10.798-5.888-19.632-5.888-10.305 0-15.459 7.116t-5.154 17.424q0 2.946 0.981 9.815l42.207 245.386-178.642 173.735q-12.27 13.251-12.27 23.557 0 18.158 27.482 22.575l246.369 35.825 110.424 223.301q9.324 20.123 24.049 20.123t24.049-20.123l110.424-223.301 246.369-35.825q27.482-4.417 27.482-22.575z" />
<glyph unicode="&#xe91c;" glyph-name="star-o" horiz-adv-x="1036" d="M667.78 424.396l150.176 145.759-207.106 30.428-92.757 187.476-92.757-187.476-207.106-30.428 150.176-145.759-35.825-206.614 185.511 97.664 185.021-97.664zM926.419 599.602q0-10.798-12.76-23.557l-178.152-173.735 42.207-245.386q0.49-3.436 0.49-9.815 0-24.539-20.123-24.539-9.324 0-19.632 5.888l-220.358 115.822-220.358-115.822q-10.798-5.888-19.632-5.888-10.305 0-15.459 7.116t-5.154 17.424q0 2.946 0.981 9.815l42.207 245.386-178.642 173.735q-12.27 13.251-12.27 23.557 0 18.158 27.482 22.575l246.369 35.825 110.424 223.301q9.324 20.123 24.049 20.123t24.049-20.123l110.424-223.301 246.369-35.825q27.482-4.417 27.482-22.575z" />
<glyph unicode="&#xe91d;" glyph-name="thumbs-up" horiz-adv-x="1021" d="M229.841 280.89q0 13.413-9.801 23.214t-23.214 9.801q-13.929 0-23.472-9.801t-9.543-23.214q0-13.929 9.543-23.472t23.472-9.543q13.413 0 23.214 9.543t9.801 23.472zM312.381 545.017v-330.158q0-13.413-9.801-23.214t-23.214-9.801h-148.571q-13.413 0-23.214 9.801t-9.801 23.214v330.158q0 13.413 9.801 23.214t23.214 9.801h148.571q13.413 0 23.214-9.801t9.801-23.214zM923.175 545.017q0-44.365-28.373-76.865 7.737-22.699 7.737-39.207 1.548-39.207-22.183-70.674 8.77-28.888 0-60.357-7.737-29.405-27.857-48.492 4.643-57.778-25.278-93.373-33.015-39.207-101.627-40.237h-66.548q-34.048 0-74.286 7.995t-62.679 14.959-62.163 20.377q-63.452 22.183-81.508 22.699-13.413 0.515-23.214 10.059t-9.801 22.957v330.674q0 12.898 9.286 22.441t22.183 10.576q12.38 1.031 39.207 30.436t52.102 62.421q35.079 44.88 52.102 61.905 9.286 9.286 15.992 24.763t9.028 25.020 6.964 31.209q3.612 20.12 6.449 31.469t10.059 26.826 17.541 25.793q9.801 9.801 23.214 9.801 23.73 0 42.559-5.416t30.952-13.413 20.635-20.893 12.38-23.214 6.191-25.793 2.579-23.214 0.258-20.12q0-19.602-4.901-39.207t-9.801-30.952-14.186-28.888q-1.548-3.095-5.158-9.286t-5.674-11.349-4.127-12.38h142.898q40.237 0 69.643-29.405t29.405-69.643z" />
<glyph unicode="&#xe91e;" glyph-name="thumbs-down" horiz-adv-x="1021" d="M229.841 743.111q0-13.413-9.801-23.214t-23.214-9.801q-13.929 0-23.472 9.801t-9.543 23.214q0 13.929 9.543 23.472t23.472 9.543q13.413 0 23.214-9.543t9.801-23.472zM312.381 478.984v330.158q0 13.413-9.801 23.214t-23.214 9.801h-148.571q-13.413 0-23.214-9.801t-9.801-23.214v-330.158q0-13.413 9.801-23.214t23.214-9.801h148.571q13.413 0 23.214 9.801t9.801 23.214zM894.802 555.849q28.373-31.469 28.373-76.865-0.515-40.237-29.663-69.643t-69.385-29.405h-142.898q2.064-7.222 4.127-12.38t5.674-11.349 5.158-9.286q9.286-19.087 13.929-29.405t9.801-30.179 5.158-39.464q0-12.38-0.258-20.12t-2.579-23.214-6.191-25.793-12.38-23.214-20.635-20.893-30.952-13.413-42.559-5.416q-13.413 0-23.214 9.801-10.317 10.317-17.541 25.793t-10.059 26.826-6.449 31.469q-4.643 21.666-6.964 31.209t-9.028 25.020-15.992 24.763q-17.023 17.023-52.102 61.905-25.278 33.015-52.102 62.421t-39.207 30.436q-12.898 1.031-22.183 10.576t-9.286 22.441v330.674q0 13.413 9.801 22.957t23.214 10.059q18.056 0.515 81.508 22.699 39.722 13.413 62.163 20.377t62.679 14.959 74.286 7.995h66.548q68.612-1.031 101.627-40.237 29.921-35.595 25.278-93.373 20.12-19.087 27.857-48.492 8.77-31.469 0-60.357 23.73-31.469 22.183-70.674 0-16.508-7.737-39.207z" />
<glyph unicode="&#xe91f;" glyph-name="mood-1" d="M512 426c100 0 184-60 218-148h-436c34 88 118 148 218 148zM362 554c-36 0-64 28-64 64s28 64 64 64 64-28 64-64-28-64-64-64zM662 554c-36 0-64 28-64 64s28 64 64 64 64-28 64-64-28-64-64-64zM512 170c188 0 342 154 342 342s-154 342-342 342-342-154-342-342 154-342 342-342zM512 938c236 0 426-190 426-426s-190-426-426-426-426 190-426 426 190 426 426 426z" />
<glyph unicode="&#xe920;" glyph-name="mood-2" d="M512 426c100 0 184-60 218-148h-70c-30 50-84 84-148 84s-118-34-148-84h-70c34 88 118 148 218 148zM512 170c188 0 342 154 342 342s-154 342-342 342-342-154-342-342 154-342 342-342zM512 938c236 0 426-190 426-426s-190-426-426-426-426 190-426 426 190 426 426 426zM298 618c0 36 28 64 64 64s64-28 64-64-28-64-64-64-64 28-64 64zM598 618c0 36 28 64 64 64s64-28 64-64-28-64-64-64-64 28-64 64z" />
<glyph unicode="&#xe921;" glyph-name="mood-3" d="M512 170c188 0 342 154 342 342s-154 342-342 342-342-154-342-342 154-342 342-342zM512 938c236 0 426-190 426-426s-190-426-426-426-426 190-426 426 190 426 426 426zM298 618c0 36 28 64 64 64s64-28 64-64-28-64-64-64-64 28-64 64zM598 618c0 36 28 64 64 64s64-28 64-64-28-64-64-64-64 28-64 64zM384 426h256v-64h-256v64z" />
<glyph unicode="&#xe922;" glyph-name="mood-4" d="M512 342c64 0 118 34 148 84h70c-34-88-118-148-218-148s-184 60-218 148h70c30-50 84-84 148-84zM512 170c188 0 342 154 342 342s-154 342-342 342-342-154-342-342 154-342 342-342zM512 938c236 0 426-190 426-426s-190-426-426-426-426 190-426 426 190 426 426 426zM298 618c0 36 28 64 64 64s64-28 64-64-28-64-64-64-64 28-64 64zM598 618c0 36 28 64 64 64s64-28 64-64-28-64-64-64-64 28-64 64z" />
<glyph unicode="&#xe923;" glyph-name="mood-5" d="M512 278c-100 0-184 60-218 148h436c-34-88-118-148-218-148zM362 554c-36 0-64 28-64 64s28 64 64 64 64-28 64-64-28-64-64-64zM662 554c-36 0-64 28-64 64s28 64 64 64 64-28 64-64-28-64-64-64zM512 170c188 0 342 154 342 342s-154 342-342 342-342-154-342-342 154-342 342-342zM512 938c236 0 426-190 426-426s-190-426-426-426-426 190-426 426 190 426 426 426z" />
<glyph unicode="&#xe924;" glyph-name="media-backward" horiz-adv-x="1021" d="M864.957 880.839q9.282 9.282 15.634 6.352t6.352-15.634v-719.112q0-12.702-6.352-15.634t-15.634 6.352l-346.854 346.854q-3.908 4.396-6.352 9.282v-346.854q0-12.702-6.352-15.634t-15.634 6.352l-346.854 346.854q-9.282 9.282-9.282 21.983t9.282 21.983l346.854 346.854q9.282 9.282 15.634 6.352t6.352-15.634v-346.854q2.443 5.374 6.352 9.282z" />
<glyph unicode="&#xe925;" glyph-name="media-forward" horiz-adv-x="1009" d="M149.9 143.161q-9.282-9.282-15.634-6.352t-6.352 15.634v719.112q0 12.702 6.352 15.634t15.634-6.352l346.854-346.854q3.908-3.908 6.352-9.282v346.854q0 12.702 6.352 15.634t15.634-6.352l346.854-346.854q9.282-9.282 9.282-21.983t-9.282-21.983l-346.854-346.854q-9.282-9.282-15.634-6.352t-6.352 15.634v346.854q-2.443-4.886-6.352-9.282z" />
<glyph unicode="&#xe926;" glyph-name="media-play" horiz-adv-x="1017" d="M841.592 496.834l-649.706-361.057q-11.253-6.361-19.325-1.468t-8.073 17.613v720.156q0 12.721 8.073 17.613t19.325-1.468l649.706-361.057q11.253-6.361 11.253-15.167t-11.253-15.167z" />
<glyph unicode="&#xe927;" glyph-name="media-pause" horiz-adv-x="1027" d="M888.38 855.619v-687.239q0-12.691-9.273-21.964t-21.964-9.273h-249.905q-12.691 0-21.964 9.273t-9.273 21.964v687.239q0 12.691 9.273 21.964t21.964 9.273h249.905q12.691 0 21.964-9.273t9.273-21.964zM451.047 855.619v-687.239q0-12.691-9.273-21.964t-21.964-9.273h-249.905q-12.691 0-21.964 9.273t-9.273 21.964v687.239q0 12.691 9.273 21.964t21.964 9.273h249.905q12.691 0 21.964-9.273t9.273-21.964z" />
<glyph unicode="&#xe928;" glyph-name="media-stop" horiz-adv-x="984" d="M867.047 855.619v-687.238q0-12.691-9.273-21.964t-21.964-9.273h-687.238q-12.691 0-21.964 9.273t-9.273 21.964v687.238q0 12.691 9.273 21.964t21.964 9.273h687.238q12.691 0 21.964-9.273t9.273-21.964z" />
<glyph unicode="&#xe929;" glyph-name="volume" horiz-adv-x="1015" d="M737.521 822.858v-621.715q0-14.857-10.857-25.714t-25.714-10.857-25.714 10.857l-190.286 190.286h-149.714q-14.857 0-25.714 10.857t-10.857 25.714v219.429q0 14.857 10.857 25.714t25.714 10.857h149.714l190.286 190.286q10.857 10.857 25.714 10.857t25.714-10.857 10.857-25.714z" />
<glyph unicode="&#xe92a;" glyph-name="volume-down" horiz-adv-x="1021" d="M630.856 822.856v-621.714q0-14.857-10.857-25.714t-25.714-10.857-25.714 10.857l-190.286 190.286h-149.714q-14.857 0-25.714 10.857t-10.857 25.714v219.429q0 14.857 10.857 25.714t25.714 10.857h149.714l190.286 190.286q10.857 10.857 25.714 10.857t25.714-10.857 10.857-25.714zM850.285 511.999q0-43.429-24.286-80.857t-64.286-53.429q-5.714-2.857-14.286-2.857-14.857 0-25.714 10.571t-10.857 26q0 12 6.857 20.286t16.571 14.286 19.429 13.143 16.571 20.286 6.857 32.571-6.857 32.571-16.571 20.286-19.429 13.143-16.571 14.286-6.857 20.286q0 15.429 10.857 26t25.714 10.571q8.571 0 14.286-2.857 40-15.429 64.286-53.143t24.286-81.143z" />
<glyph unicode="&#xe92b;" glyph-name="volume-up" horiz-adv-x="1015" d="M481.524 822.858v-621.714q0-14.857-10.857-25.714t-25.714-10.857-25.714 10.857l-190.286 190.286h-149.714q-14.857 0-25.714 10.857t-10.857 25.714v219.429q0 14.857 10.857 25.714t25.714 10.857h149.714l190.286 190.286q10.857 10.857 25.714 10.857t25.714-10.857 10.857-25.714zM700.953 512.001q0-43.429-24.286-80.857t-64.286-53.429q-5.714-2.857-14.286-2.857-14.857 0-25.714 10.571t-10.857 26q0 12 6.857 20.286t16.571 14.286 19.429 13.143 16.571 20.286 6.857 32.571-6.857 32.571-16.571 20.286-19.429 13.143-16.571 14.286-6.857 20.286q0 15.429 10.857 26t25.714 10.571q8.571 0 14.286-2.857 40-15.429 64.286-53.143t24.286-81.143zM847.238 512.001q0-87.429-48.571-161.429t-128.571-107.714q-7.429-2.857-14.286-2.857-15.429 0-26.286 10.857t-10.857 25.714q0 22.286 22.286 33.714 32 16.571 43.429 25.143 42.286 30.857 66 77.429t23.714 99.143-23.714 99.143-66 77.429q-11.429 8.571-43.429 25.143-22.286 11.429-22.286 33.714 0 14.857 10.857 25.714t25.714 10.857q7.429 0 14.857-2.857 80-33.714 128.571-107.714t48.571-161.429zM993.524 512.001q0-131.429-72.571-241.429t-193.143-162q-7.429-2.857-14.857-2.857-14.857 0-25.714 10.857t-10.857 25.714q0 20.571 22.286 33.714 4 2.286 12.857 6t12.857 6q26.286 14.286 46.857 29.143 70.286 52 109.714 129.714t39.429 165.143-39.429 165.143-109.714 129.714q-20.571 14.857-46.857 29.143-4 2.286-12.857 6t-12.857 6q-22.286 13.143-22.286 33.714 0 14.857 10.857 25.714t25.714 10.857q7.429 0 14.857-2.857 120.571-52 193.143-162t72.571-241.429z" />
<glyph unicode="&#xe92c;" glyph-name="volume-mute" horiz-adv-x="1015" d="M737.521 822.856v-621.714q0-14.857-10.857-25.714t-25.714-10.857-25.714 10.857l-190.286 190.286h-149.714q-14.857 0-25.714 10.857t-10.857 25.714v219.429q0 14.857 10.857 25.714t25.714 10.857h149.714l190.286 190.286q10.857 10.857 25.714 10.857t25.714-10.857 10.857-25.714z" />
<glyph unicode="&#xe92d;" glyph-name="fullscreen" horiz-adv-x="1006" d="M506.096 420.57q0-7.429-5.714-13.143l-189.714-189.714 82.286-82.286q10.857-10.857 10.857-25.714t-10.857-25.714-25.714-10.857h-256q-14.857 0-25.714 10.857t-10.857 25.714v256q0 14.857 10.857 25.714t25.714 10.857 25.714-10.857l82.286-82.286 189.714 189.714q5.714 5.714 13.143 5.714t13.143-5.714l65.143-65.143q5.714-5.714 5.714-13.143zM952.381 914.285v-256q0-14.857-10.857-25.714t-25.714-10.857-25.714 10.857l-82.286 82.286-189.714-189.714q-5.714-5.714-13.143-5.714t-13.143 5.714l-65.143 65.143q-5.714 5.714-5.714 13.143t5.714 13.143l189.714 189.714-82.286 82.286q-10.857 10.857-10.857 25.714t10.857 25.714 25.714 10.857h256q14.857 0 25.714-10.857t10.857-25.714z" />
<glyph unicode="&#xe92e;" glyph-name="fullscreen-exit" horiz-adv-x="1006" d="M513.524 475.428v-256q0-14.857-10.857-25.714t-25.714-10.857-25.714 10.857l-82.286 82.286-189.714-189.714q-5.714-5.714-13.143-5.714t-13.143 5.714l-65.143 65.143q-5.714 5.714-5.714 13.143t5.714 13.143l189.714 189.714-82.286 82.286q-10.857 10.857-10.857 25.714t10.857 25.714 25.714 10.857h256q14.857 0 25.714-10.857t10.857-25.714zM944.953 859.428q0-7.429-5.714-13.143l-189.714-189.714 82.286-82.286q10.857-10.857 10.857-25.714t-10.857-25.714-25.714-10.857h-256q-14.857 0-25.714 10.857t-10.857 25.714v256q0 14.857 10.857 25.714t25.714 10.857 25.714-10.857l82.286-82.286 189.714 189.714q5.714 5.714 13.143 5.714t13.143-5.714l65.143-65.143q5.714-5.714 5.714-13.143z" />
<glyph unicode="&#xe92f;" glyph-name="caption" d="M768 554v44c0 24-18 42-42 42h-128c-24 0-44-18-44-42v-172c0-24 20-42 44-42h128c24 0 42 18 42 42v44h-64v-22h-86v128h86v-22h64zM470 554v44c0 24-20 42-44 42h-128c-24 0-42-18-42-42v-172c0-24 18-42 42-42h128c24 0 44 18 44 42v44h-64v-22h-86v128h86v-22h64zM810 854c46 0 86-40 86-86v-512c0-46-40-86-86-86h-596c-48 0-86 40-86 86v512c0 46 38 86 86 86h596z" />
<glyph unicode="&#xe930;" glyph-name="media-film" horiz-adv-x="1012" d="M273.173 244.745v53.451q0 10.854-7.935 18.79t-18.79 7.935h-53.451q-10.854 0-18.79-7.935t-7.935-18.79v-53.451q0-10.854 7.935-18.79t18.79-7.935h53.451q10.854 0 18.79 7.935t7.935 18.79zM273.173 405.098v53.451q0 10.854-7.935 18.79t-18.79 7.935h-53.451q-10.854 0-18.79-7.935t-7.935-18.79v-53.451q0-10.854 7.935-18.79t18.79-7.935h53.451q10.854 0 18.79 7.935t7.935 18.79zM273.173 565.45v53.451q0 10.854-7.935 18.79t-18.79 7.935h-53.451q-10.854 0-18.79-7.935t-7.935-18.79v-53.451q0-10.854 7.935-18.79t18.79-7.935h53.451q10.854 0 18.79 7.935t7.935 18.79zM700.775 244.745v213.803q0 10.854-7.935 18.79t-18.79 7.935h-320.705q-10.854 0-18.79-7.935t-7.935-18.79v-213.803q0-10.854 7.935-18.79t18.79-7.935h320.705q10.854 0 18.79 7.935t7.935 18.79zM273.173 725.803v53.451q0 10.854-7.935 18.79t-18.79 7.935h-53.451q-10.854 0-18.79-7.935t-7.935-18.79v-53.451q0-10.854 7.935-18.79t18.79-7.935h53.451q10.854 0 18.79 7.935t7.935 18.79zM861.128 244.745v53.451q0 10.854-7.935 18.79t-18.79 7.935h-53.451q-10.854 0-18.79-7.935t-7.935-18.79v-53.451q0-10.854 7.935-18.79t18.79-7.935h53.451q10.854 0 18.79 7.935t7.935 18.79zM700.775 565.45v213.803q0 10.854-7.935 18.79t-18.79 7.935h-320.705q-10.854 0-18.79-7.935t-7.935-18.79v-213.803q0-10.854 7.935-18.79t18.79-7.935h320.705q10.854 0 18.79 7.935t7.935 18.79zM861.128 405.098v53.451q0 10.854-7.935 18.79t-18.79 7.935h-53.451q-10.854 0-18.79-7.935t-7.935-18.79v-53.451q0-10.854 7.935-18.79t18.79-7.935h53.451q10.854 0 18.79 7.935t7.935 18.79zM861.128 565.45v53.451q0 10.854-7.935 18.79t-18.79 7.935h-53.451q-10.854 0-18.79-7.935t-7.935-18.79v-53.451q0-10.854 7.935-18.79t18.79-7.935h53.451q10.854 0 18.79 7.935t7.935 18.79zM861.128 725.803v53.451q0 10.854-7.935 18.79t-18.79 7.935h-53.451q-10.854 0-18.79-7.935t-7.935-18.79v-53.451q0-10.854 7.935-18.79t18.79-7.935h53.451q10.854 0 18.79 7.935t7.935 18.79zM914.579 792.613v-561.232q0-27.562-19.627-47.189t-47.189-19.627h-668.132q-27.562 0-47.189 19.627t-19.627 47.189v561.232q0 27.562 19.627 47.189t47.189 19.627h668.132q27.562 0 47.189-19.627t19.627-47.189z" />
<glyph unicode="&#xe931;" glyph-name="media-video-camera" d="M964.264 786.59v-549.18q0-21.2-19.686-29.78-6.563-2.523-12.62-2.523-13.629 0-22.714 9.591l-203.42 203.42v-83.791q0-60.066-42.652-102.72t-102.72-42.652h-355.351q-60.066 0-102.72 42.652t-42.652 102.72v355.351q0 60.066 42.652 102.72t102.72 42.652h355.351q60.066 0 102.72-42.652t42.652-102.72v-83.286l203.42 202.914q9.086 9.591 22.714 9.591 6.057 0 12.62-2.523 19.686-8.58 19.686-29.78z" />
<glyph unicode="&#xe932;" glyph-name="media-image" horiz-adv-x="1012" d="M367.193 659.301q0-36.826-25.774-62.602t-62.602-25.774-62.602 25.774-25.774 62.602 25.774 62.602 62.602 25.774 62.602-25.774 25.774-62.602zM838.561 482.541v-206.224h-648.13v88.38l147.301 147.301 73.654-73.654 235.688 235.688zM882.75 806.602h-736.506q-5.985 0-10.357-4.373t-4.373-10.357v-559.745q0-5.985 4.373-10.357t10.357-4.373h736.506q5.985 0 10.357 4.373t4.373 10.357v559.745q0 5.985-4.373 10.357t-10.357 4.373zM956.407 791.873v-559.745q0-30.386-21.631-52.015t-52.015-21.631h-736.506q-30.386 0-52.015 21.631t-21.631 52.015v559.745q0 30.386 21.631 52.015t52.015 21.631h736.506q30.386 0 52.015-21.631t21.631-52.015z" />
<glyph unicode="&#xe933;" glyph-name="check" d="M954.857 718.857q0-22.857-16-38.857l-491.429-491.429q-16-16-38.857-16t-38.857 16l-284.571 284.571q-16 16-16 38.857t16 38.857l77.714 77.714q16 16 38.857 16t38.857-16l168-168.571 374.857 375.429q16 16 38.857 16t38.857-16l77.714-77.714q16-16 16-38.857z" />
<glyph unicode="&#xe934;" glyph-name="magnify" horiz-adv-x="1015" d="M700.952 585.143q0 105.714-75.143 180.857t-180.857 75.143-180.857-75.143-75.143-180.857 75.143-180.857 180.857-75.143 180.857 75.143 75.143 180.857zM993.523 109.715q0-29.714-21.714-51.429t-51.429-21.714q-30.857 0-51.429 21.714l-196 195.429q-102.286-70.857-228-70.857-81.714 0-156.286 31.714t-128.571 85.714-85.714 128.571-31.714 156.286 31.714 156.286 85.714 128.571 128.571 85.714 156.286 31.714 156.286-31.714 128.571-85.714 85.714-128.571 31.714-156.286q0-125.714-70.857-228l196-196q21.143-21.143 21.143-51.429z" />
<glyph unicode="&#xe935;" glyph-name="zoom-in" horiz-adv-x="1015" d="M627.809 603.429v-36.571q0-7.429-5.429-12.857t-12.857-5.429h-128v-128q0-7.429-5.429-12.857t-12.857-5.429h-36.571q-7.429 0-12.857 5.429t-5.429 12.857v128h-128q-7.429 0-12.857 5.429t-5.429 12.857v36.571q0 7.429 5.429 12.857t12.857 5.429h128v128q0 7.429 5.429 12.857t12.857 5.429h36.571q7.429 0 12.857-5.429t5.429-12.857v-128h128q7.429 0 12.857-5.429t5.429-12.857zM700.952 585.143q0 105.714-75.143 180.857t-180.857 75.143-180.857-75.143-75.143-180.857 75.143-180.857 180.857-75.143 180.857 75.143 75.143 180.857zM993.523 109.715q0-30.286-21.429-51.714t-51.714-21.429q-30.857 0-51.429 21.714l-196 195.429q-102.286-70.857-228-70.857-81.714 0-156.286 31.714t-128.571 85.714-85.714 128.571-31.714 156.286 31.714 156.286 85.714 128.571 128.571 85.714 156.286 31.714 156.286-31.714 128.571-85.714 85.714-128.571 31.714-156.286q0-125.714-70.857-228l196-196q21.143-21.143 21.143-51.429z" />
<glyph unicode="&#xe936;" glyph-name="zoom-out" horiz-adv-x="1015" d="M627.809 603.429v-36.571q0-7.429-5.429-12.857t-12.857-5.429h-329.143q-7.429 0-12.857 5.429t-5.429 12.857v36.571q0 7.429 5.429 12.857t12.857 5.429h329.143q7.429 0 12.857-5.429t5.429-12.857zM700.952 585.143q0 105.714-75.143 180.857t-180.857 75.143-180.857-75.143-75.143-180.857 75.143-180.857 180.857-75.143 180.857 75.143 75.143 180.857zM993.523 109.715q0-30.286-21.429-51.714t-51.714-21.429q-30.857 0-51.429 21.714l-196 195.429q-102.286-70.857-228-70.857-81.714 0-156.286 31.714t-128.571 85.714-85.714 128.571-31.714 156.286 31.714 156.286 85.714 128.571 128.571 85.714 156.286 31.714 156.286-31.714 128.571-85.714 85.714-128.571 31.714-156.286q0-125.714-70.857-228l196-196q21.143-21.143 21.143-51.429z" />
<glyph unicode="&#xe937;" glyph-name="plus" horiz-adv-x="1018" d="M825.906 555.221v-86.442q0-18.009-12.606-30.613t-30.613-12.606h-187.29v-187.29q0-18.009-12.606-30.613t-30.613-12.606h-86.442q-18.009 0-30.613 12.606t-12.606 30.613v187.29h-187.29q-18.009 0-30.613 12.606t-12.606 30.613v86.442q0 18.009 12.606 30.613t30.613 12.606h187.29v187.29q0 18.009 12.606 30.613t30.613 12.606h86.442q18.009 0 30.613-12.606t12.606-30.613v-187.29h187.29q18.009 0 30.613-12.606t12.606-30.613z" />
<glyph unicode="&#xe938;" glyph-name="minus" horiz-adv-x="1018" d="M833.015 556.191v-88.383q0-18.414-12.889-31.3t-31.3-12.889h-559.746q-18.414 0-31.3 12.889t-12.889 31.3v88.383q0 18.414 12.889 31.3t31.3 12.889h559.746q18.414 0 31.3-12.889t12.889-31.3z" />
<glyph unicode="&#xe939;" glyph-name="flip" horiz-adv-x="1006" d="M874.624 433.904q0-2.44-0.487-3.418-31.237-130.811-130.811-212.079t-233.309-81.268q-71.261 0-137.888 26.845t-118.851 76.631l-62.965-62.965q-9.273-9.273-21.964-9.273t-21.964 9.273-9.273 21.964v218.668q0 12.691 9.273 21.964t21.964 9.273h218.668q12.691 0 21.964-9.273t9.273-21.964-9.273-21.964l-66.868-66.868q34.655-32.215 78.584-49.787t91.275-17.571q65.405 0 122.025 31.725t90.785 87.37q5.368 8.298 25.87 57.107 3.905 11.226 14.644 11.226h93.715q6.346 0 10.982-4.637t4.637-10.982zM886.824 824.381v-218.668q0-12.691-9.273-21.964t-21.964-9.273h-218.668q-12.691 0-21.964 9.273t-9.273 21.964 9.273 21.964l67.358 67.358q-72.238 66.868-170.347 66.868-65.405 0-122.025-31.725t-90.785-87.37q-5.368-8.298-25.87-57.107-3.905-11.226-14.644-11.226h-97.13q-6.346 0-10.982 4.637t-4.637 10.982v3.418q31.725 130.811 131.786 212.079t234.287 81.268q71.261 0 138.619-27.088t119.583-76.388l63.453 62.965q9.273 9.273 21.964 9.273t21.964-9.273 9.273-21.964z" />
<glyph unicode="&#xe93a;" glyph-name="drag" d="M896.002 512q0-11.143-8.145-19.288l-109.716-109.716q-8.145-8.145-19.288-8.145t-19.288 8.145-8.145 19.288v54.857h-164.571v-164.571h54.857q11.143 0 19.288-8.145t8.145-19.288-8.145-19.288l-109.716-109.716q-8.145-8.145-19.288-8.145t-19.288 8.145l-109.716 109.716q-8.145 8.145-8.145 19.288t8.145 19.288 19.288 8.145h54.857v164.571h-164.571v-54.857q0-11.143-8.145-19.288t-19.288-8.145-19.288 8.145l-109.716 109.716q-8.145 8.145-8.145 19.288t8.145 19.288l109.716 109.716q8.145 8.145 19.288 8.145t19.288-8.145 8.145-19.288v-54.857h164.571v164.571h-54.857q-11.143 0-19.288 8.145t-8.145 19.288 8.145 19.288l109.716 109.716q8.145 8.145 19.288 8.145t19.288-8.145l109.716-109.716q8.145-8.145 8.145-19.288t-8.145-19.288-19.288-8.145h-54.857v-164.571h164.571v54.857q0 11.143 8.145 19.288t19.288 8.145 19.288-8.145l109.716-109.716q8.145-8.145 8.145-19.288z" />
<glyph unicode="&#xe93b;" glyph-name="sort" horiz-adv-x="1012" d="M751.931 419.74q0-12.493-9.129-21.622l-215.272-215.272q-9.129-9.129-21.622-9.129t-21.622 9.129l-215.272 215.272q-9.129 9.129-9.129 21.622t9.129 21.622 21.622 9.129h430.544q12.493 0 21.622-9.129t9.129-21.622zM751.931 604.26q0-12.493-9.129-21.622t-21.622-9.129h-430.544q-12.493 0-21.622 9.129t-9.129 21.622 9.129 21.622l215.272 215.272q9.129 9.129 21.622 9.129t21.622-9.129l215.272-215.272q9.129-9.129 9.129-21.622z" />
<glyph unicode="&#xe93c;" glyph-name="configure" horiz-adv-x="1026" d="M275.191 240.566q0 13.507-9.871 23.376t-23.376 9.871-23.376-9.871-9.871-23.376 9.871-23.376 23.376-9.871 23.376 9.871 9.871 23.376zM609.743 458.752l-354.292-354.292q-19.221-19.221-46.755-19.221-27.014 0-47.274 19.221l-55.065 56.104q-19.74 18.701-19.74 46.755 0 27.534 19.74 47.274l353.773 353.773q20.26-50.91 59.483-90.131t90.131-59.483zM939.1 684.73q0-20.26-11.949-55.065-24.415-69.611-85.456-112.99t-134.288-43.378q-96.106 0-164.419 68.313t-68.313 164.419 68.313 164.419 164.419 68.313q30.131 0 63.119-8.572t55.845-24.155q8.312-5.714 8.312-14.546t-8.312-14.546l-152.211-87.793v-116.366l100.262-55.585q2.597 1.558 41.039 25.196t70.391 42.079 36.624 18.442q7.792 0 12.209-5.194t4.415-12.988z" />
<glyph unicode="&#xe93d;" glyph-name="settings" horiz-adv-x="1006" d="M644.55 511.999q0 54.683-38.691 93.373t-93.373 38.691-93.373-38.691-38.691-93.373 38.691-93.373 93.373-38.691 93.373 38.691 38.691 93.373zM908.677 568.229v-114.523q0-6.191-4.127-11.865t-10.317-6.707l-95.436-14.444q-9.801-27.857-20.12-46.944 18.056-25.793 55.199-71.191 5.158-6.191 5.158-12.898t-4.643-11.865q-13.929-19.087-51.071-55.714t-48.492-36.627q-6.191 0-13.413 4.643l-71.191 55.714q-22.699-11.865-46.944-19.602-8.255-70.158-14.959-95.952-3.612-14.444-18.571-14.444h-114.523q-7.222 0-12.638 4.385t-5.933 11.092l-14.444 94.921q-25.278 8.255-46.429 19.087l-72.737-55.199q-5.158-4.643-12.898-4.643-7.222 0-12.898 5.674-65 58.809-85.12 86.666-3.612 5.158-3.612 11.865 0 6.191 4.127 11.865 7.737 10.834 26.309 34.306t27.857 36.37q-13.929 25.793-21.151 51.071l-94.405 13.929q-6.707 1.031-10.834 6.449t-4.127 12.123v114.523q0 6.191 4.127 11.865t9.801 6.707l95.952 14.444q7.222 23.73 20.12 47.459-20.635 29.405-55.199 71.191-5.158 6.191-5.158 12.38 0 5.158 4.643 11.865 13.413 18.571 50.814 55.457t48.75 36.885q6.707 0 13.413-5.158l71.191-55.199q22.699 11.865 46.944 19.602 8.255 70.158 14.959 95.952 3.612 14.444 18.571 14.444h114.523q7.222 0 12.638-4.385t5.933-11.092l14.444-94.921q25.278-8.255 46.429-19.087l73.255 55.199q4.643 4.643 12.38 4.643 6.707 0 12.898-5.158 66.548-61.388 85.12-87.699 3.612-4.127 3.612-11.349 0-6.191-4.127-11.865-7.737-10.834-26.309-34.306t-27.857-36.37q13.413-25.793 21.151-50.556l94.405-14.444q6.707-1.031 10.834-6.449t4.127-12.123z" />
<glyph unicode="&#xe93e;" glyph-name="flag" horiz-adv-x="1018" d="M212.191 824.38q0-35.143-31.237-53.689v-617.928q0-6.346-4.637-10.982t-10.982-4.637h-31.237q-6.346 0-10.982 4.637t-4.637 10.982v617.928q-31.237 18.547-31.237 53.689 0 25.87 18.303 44.172t44.172 18.303 44.172-18.303 18.303-44.172zM930.667 793.143v-372.417q0-12.203-6.102-18.793t-19.28-13.422q-104.941-56.62-180.107-56.62-29.775 0-60.279 10.738t-52.958 23.43-56.376 23.43-69.555 10.738q-93.715 0-226.476-71.261-8.298-4.393-16.106-4.393-12.691 0-21.964 9.273t-9.273 21.964v362.167q0 15.619 15.131 26.845 10.251 6.833 38.56 20.989 115.189 58.572 205.489 58.572 52.227 0 97.618-14.154t106.894-42.953q18.547-9.273 42.953-9.273 26.357 0 57.351 10.251t53.689 22.939 42.953 22.939 26.601 10.251q12.691 0 21.964-9.273t9.273-21.964z" />
<glyph unicode="&#xe93f;" glyph-name="world" horiz-adv-x="1006" d="M513.005 929.524q113.623 0 209.578-55.996t151.95-151.95 55.996-209.578-55.996-209.578-151.95-151.95-209.578-55.996-209.578 55.996-151.95 151.95-55.996 209.578 55.996 209.578 151.95 151.95 209.578 55.996zM661.965 646.282q-1.087-0.543-5.165-5.165t-7.339-5.165q1.087 0 2.446 2.718t2.718 5.98 1.903 3.806q3.262 3.806 11.96 8.154 7.611 3.262 28.27 6.524 18.485 4.349 27.726-5.98-1.087 1.087 5.165 7.068t7.883 6.524q1.631 1.087 8.154 2.446t8.154 4.078l1.087 11.96q-6.524-0.543-9.514 3.806t-3.533 11.417q0-1.087-3.262-4.349 0 3.806-2.446 4.349t-6.252-0.543-4.893-0.543q-5.436 1.631-8.154 4.078t-4.349 8.971-2.175 8.154q-1.087 2.718-5.165 5.708t-5.165 5.708q-0.543 1.087-1.36 2.99t-1.631 3.533-2.175 2.99-2.99 1.36-3.806-2.718-4.078-5.436-2.446-2.718q-1.631 1.087-3.262 0.815t-2.446-0.543-2.446-1.631-2.718-1.903q-1.631-1.087-4.621-1.631t-4.621-1.087q8.154 2.718-0.543 5.98-5.436 2.175-8.699 1.631 4.893 2.175 4.078 6.524t-4.621 7.611h2.718q-0.543 2.175-4.621 4.621t-9.514 4.621-7.068 3.262q-4.349 2.718-18.485 5.165t-17.94 0.272q-2.718-3.262-2.446-5.708t2.175-7.611 1.903-6.796q0.543-3.262-2.99-7.068t-3.533-6.524q0-3.806 7.611-8.426t5.436-11.689q-1.631-4.349-8.699-8.699t-8.699-6.524q-2.718-4.349-0.815-10.057t5.708-8.971q1.087-1.087 0.815-2.175t-1.903-2.446-2.99-2.175-3.533-1.903l-1.631-1.087q-5.98-2.718-11.145 3.262t-7.339 14.135q-3.806 13.592-8.699 16.31-12.504 4.349-15.765-0.543-2.718 7.068-22.29 14.135-13.592 4.893-31.532 2.175 3.262 0.543 0 8.154-3.806 8.154-10.329 6.524 1.631 3.262 2.175 9.514t0.543 7.339q1.631 7.068 6.524 12.504 0.543 0.543 3.806 4.621t5.165 7.339 0.272 3.262q19.028-2.175 27.182 5.98 2.718 2.718 6.252 9.242t5.708 9.242q4.893 3.262 7.611 2.99t7.883-2.99 7.883-2.718q7.611-0.543 8.426 5.98t-4.078 10.873q6.524-0.543 1.631 9.242-2.718 3.806-4.349 4.893-6.524 2.175-14.679-2.718-4.349-2.175 1.087-4.349-0.543 0.543-5.165-5.708t-8.971-9.514-8.699 2.718q-0.543 0.543-2.99 7.339t-5.165 7.339q-4.349 0-8.699-8.154 1.631 4.349-5.98 8.154t-13.047 4.349q10.329 6.524-4.349 14.679-3.806 2.175-11.145 2.718t-10.601-2.175q-2.718-3.806-2.99-6.252t2.718-4.349 5.708-2.99 6.252-2.175 4.621-1.631q7.611-5.436 4.349-7.611-1.087-0.543-4.621-1.903t-6.252-2.446-3.262-2.175q-1.631-2.175 0-7.611t-1.087-7.611q-2.718 2.718-4.893 9.514t-3.806 8.971q3.806-4.893-13.592-3.262l-5.436 0.543q-2.175 0-8.699-1.087t-11.145-0.543-7.339 4.349q-2.175 4.349 0 10.873 0.543 2.175 2.175 1.087-2.175 1.631-5.98 5.165t-5.436 4.621q-25.008-8.154-51.103-22.29 3.262-0.543 6.524 0.543 2.718 1.087 7.068 3.533t5.436 2.99q18.485 7.611 22.833 3.806l2.718 2.718q7.611-8.699 10.873-13.592-3.806 2.175-16.31 0.543-10.873-3.262-11.96-6.524 3.806-6.524 2.718-9.786-2.175 1.631-6.252 5.436t-7.883 5.98-8.154 2.718q-8.699 0-11.96-0.543-79.373-43.492-127.758-120.69 3.806-3.806 6.524-4.349 2.175-0.543 2.718-4.893t1.36-5.98 6.252 1.631q4.893-4.349 1.631-10.329 0.543 0.543 23.921-14.679 10.329-9.242 11.417-11.417 1.631-5.98-5.436-9.786-0.543 1.087-4.893 4.893t-4.893 2.175q-1.631-2.718 0.272-10.057t5.708-6.796q-3.806 0-5.165-8.699t-1.36-19.3-0.543-12.776l1.087-0.543q-1.631-6.524 2.99-18.756t11.689-10.601q-7.068-1.631 10.873-23.377 3.262-4.349 4.349-4.893 1.631-1.087 6.524-4.078t8.154-5.436 5.436-5.708q2.175-2.718 5.436-12.232t7.611-12.776q-1.087-3.262 5.165-10.873t5.708-12.504q-0.543 0-1.36-0.543t-1.36-0.543q1.631-3.806 8.426-7.611t8.426-7.068q0.543-1.631 1.087-5.436t1.631-5.98 4.349-1.087q1.087 10.873-13.047 33.707-8.154 13.592-9.242 15.765-1.631 2.718-2.99 8.426t-2.446 7.883q1.087 0 3.262-0.815t4.621-1.903 4.078-2.175 1.087-1.631q-1.631-3.806 1.087-9.514t6.524-10.057 9.242-10.329 6.524-7.068q3.262-3.262 7.611-10.601t0-7.339q4.893 0 10.873-5.436t9.242-10.873q2.718-4.349 4.349-14.135t2.718-13.047q1.087-3.806 4.621-7.339t6.796-5.165l8.699-4.349t7.068-3.806q2.718-1.087 10.057-5.708t11.689-6.252q5.436-2.175 8.699-2.175t7.883 1.36 7.339 1.903q8.154 1.087 15.765-8.154t11.417-11.417q19.571-10.329 29.901-5.98-1.087-0.543 0.272-4.078t4.349-8.426 4.893-7.883 2.99-4.621q2.718-3.262 9.786-8.154t9.786-8.154q3.262 2.175 3.806 4.893-1.631-4.349 3.806-10.873t9.786-5.436q7.611 1.631 7.611 17.397-16.853-8.154-26.639 9.786 0 0.543-1.36 2.99t-2.175 4.621-1.36 4.621 0 4.078 2.718 1.631q4.893 0 5.436 1.903t-1.087 6.796-2.175 7.068q-0.543 4.349-5.98 10.873t-6.524 8.154q-2.718-4.893-8.699-4.349t-8.699 4.893q0-0.543-0.815-2.99t-0.815-3.533q-7.068 0-8.154 0.543 0.543 1.631 1.36 9.514t1.903 12.232q0.543 2.175 2.99 6.524t4.078 7.883 2.175 6.796-2.446 5.165-9.514 1.36q-10.329-0.543-14.135-10.873-0.543-1.631-1.631-5.708t-2.718-6.252-4.893-3.806q-3.806-1.631-13.047-1.087t-13.047 2.718q-7.068 4.349-12.232 15.765t-5.165 20.115q0 5.436 1.36 14.407t1.631 13.592-2.99 13.319q1.631 1.087 4.893 5.165t5.436 5.708q1.087 0.543 2.446 0.815t2.446 0 2.175 0.815 1.631 3.262q-0.543 0.543-2.175 1.631-1.631 1.631-2.175 1.631 3.806-1.631 15.494 0.815t14.95-0.815q8.154-5.98 11.96 1.087 0 0.543-1.36 5.165t-0.272 7.339q2.718-14.679 15.765-4.893 1.631-1.631 8.426-2.718t9.514-2.718q1.631-1.087 3.806-2.99t2.99-2.446 2.718 0.272 4.621 3.533q5.436-7.611 6.524-13.047 5.98-21.746 10.329-23.921 3.806-1.631 5.98-1.087t2.446 5.165 0 7.611-0.815 6.796l-0.543 4.349v9.786l-0.543 4.349q-8.154 1.631-10.057 6.524t0.815 10.057 8.154 10.057q0.543 0.543 4.349 1.903t8.426 3.533 6.796 4.349q11.417 10.329 8.154 19.028 3.806 0 5.98 4.893-0.543 0-2.718 1.631t-4.078 2.718-2.446 1.087q4.893 2.718 1.087 8.699 2.718 1.631 4.078 5.98t4.078 5.436q4.893-6.524 11.417-1.087 3.806 4.349 0.543 8.699 2.718 3.806 11.145 5.708t10.057 5.165q3.806-1.087 4.349 1.087t0.543 6.524 1.631 6.524q2.175 2.718 8.154 4.893t7.068 2.718l9.242 5.98q1.631 2.175 0 2.175 9.786-1.087 16.853 5.98 5.436 5.98-3.262 10.873 1.631 3.262-1.631 5.165t-8.154 2.99q1.631 0.543 6.252 0.272t5.708 0.815q8.154 5.436-3.806 8.699-9.242 2.718-23.377-6.524zM573.35 169.5q111.992 19.571 190.821 102.75-1.631 1.631-6.796 2.446t-6.796 1.903q-9.786 3.806-13.047 4.349 0.543 3.806-1.36 7.068t-4.349 4.893-6.796 4.349-5.98 3.806q-1.087 1.087-3.806 3.262t-3.806 2.99-4.078 2.446-4.621 1.087-5.436-0.543l-1.631-0.543q-1.631-0.543-2.99-1.36t-2.99-1.631-2.175-1.631 0-1.36q-11.417 9.242-19.571 11.96-2.718 0.543-5.98 2.99t-5.708 3.806-5.436 0.815-6.252-3.806q-2.718-2.718-3.262-8.154t-1.087-7.068q-3.806 2.718 0 9.514t1.087 10.057q-1.631 3.262-5.708 2.446t-6.524-2.446-6.252-4.621-4.893-3.533-4.621-2.99-4.621-4.078q-1.631-2.175-3.262-6.524t-2.718-5.98q-1.087 2.175-6.252 3.533t-5.165 2.99q1.087-5.436 2.175-19.028t2.718-20.658q3.806-16.853-6.524-26.096-14.679-13.592-15.765-21.746-2.175-11.96 6.524-14.135 0-3.806-4.349-11.145t-3.806-11.689q0-3.262 1.087-8.699z" />
<glyph unicode="&#xe940;" glyph-name="bookmark" horiz-adv-x="1009" d="M799.172 922.953q12.494 0 23.902-4.889 17.926-7.062 28.52-22.273t10.593-33.681v-700.221q0-18.47-10.593-33.681t-28.52-22.273q-10.321-4.345-23.902-4.345-26.075 0-45.088 17.384l-239.564 230.329-239.564-230.329q-19.556-17.926-45.088-17.926-12.494 0-23.902 4.889-17.926 7.062-28.52 22.273t-10.593 33.681v700.221q0 18.47 10.593 33.681t28.52 22.273q11.408 4.889 23.902 4.889h569.303z" />
<glyph unicode="&#xe941;" glyph-name="mail" d="M942.547 632.128v-381.532q0-31.714-22.585-54.299t-54.299-22.585h-707.325q-31.714 0-54.299 22.585t-22.585 54.299v381.532q21.144-23.545 48.531-41.806 173.947-118.208 238.818-165.779 27.39-20.181 44.448-31.474t45.408-23.064 52.858-11.774h0.96q24.507 0 52.858 11.774t45.408 23.064 44.448 31.474q81.688 59.105 239.298 165.779 27.39 18.74 48.053 41.806zM942.547 773.401q0-37.961-23.545-72.558t-58.623-59.105q-180.675-125.416-224.883-156.17-4.805-3.364-20.422-14.657t-25.949-18.26-24.986-15.616-27.631-12.975-24.026-4.324h-0.96q-11.052 0-24.026 4.324t-27.631 12.975-24.986 15.616-25.949 18.26-20.422 14.657q-43.726 30.754-125.897 87.696t-98.507 68.475q-29.792 20.181-56.222 55.5t-26.428 65.592q0 37.479 19.94 62.469t56.941 24.986h707.325q31.233 0 54.059-22.585t22.826-54.299z" />
<glyph unicode="&#xe942;" glyph-name="message" d="M924.53 571.241q0-80.113-55.25-148.022t-150.094-107.275-207.187-39.365q-32.228 0-66.761 3.683-91.163-80.572-211.789-111.421-22.56-6.445-52.487-10.128-7.826-0.921-14.043 4.143t-8.056 13.351v0.459q-1.382 1.842-0.23 5.525t0.921 4.603 2.071 4.373l2.762 4.143t3.224 3.913 3.683 4.143q3.224 3.683 14.274 15.884t15.884 17.494 14.274 18.187 14.963 23.482 12.433 27.165 11.969 34.993q-72.286 40.977-113.953 101.29t-41.666 129.375q0 59.854 32.689 114.412t87.939 94.153 131.677 62.848 160.225 23.25q112.341 0 207.187-39.365t150.094-107.275 55.25-148.022z" />
<glyph unicode="&#xe943;" glyph-name="lightbulb" horiz-adv-x="1012" d="M637.829 685.967q0-7.068-5.165-12.232t-12.232-5.165-12.232 5.165-5.165 12.232q0 25.008-29.357 38.599t-57.627 13.592q-7.068 0-12.232 5.165t-5.165 12.232 5.165 12.232 12.232 5.165q27.182 0 54.093-8.699t47.297-29.357 20.387-48.929zM724.814 685.967q0 39.143-18.756 72.849t-48.929 55.181-66.869 33.707-74.208 12.232-74.208-12.232-66.869-33.707-48.929-55.181-18.756-72.849q0-54.908 36.968-97.857 5.436-5.98 16.582-17.94t16.582-17.94q69.587-83.179 76.654-162.008h123.953q7.068 78.829 76.654 162.008 5.436 5.98 16.582 17.94t16.582 17.94q36.968 42.949 36.968 97.857zM794.401 685.967q0-84.265-55.996-145.699-24.464-26.639-40.502-47.297t-32.347-51.918-18.485-58.443q25.551-15.222 25.551-44.579 0-20.115-13.592-34.793 13.592-14.679 13.592-34.793 0-28.27-24.464-44.036 7.068-12.504 7.068-25.551 0-25.008-17.125-38.599t-42.133-13.592q-10.873-23.921-32.619-38.056t-47.297-14.135-47.297 14.135-32.619 38.056q-25.008 0-42.133 13.592t-17.125 38.599q0 13.047 7.068 25.551-24.464 15.765-24.464 44.036 0 20.115 13.592 34.793-13.592 14.679-13.592 34.793 0 29.357 25.551 44.579-2.175 27.182-18.485 58.443t-32.347 51.918-40.502 47.297q-55.996 61.432-55.996 145.699 0 53.821 24.193 100.304t63.607 77.199 89.158 48.385 101.39 17.668 101.39-17.668 89.158-48.385 63.607-77.199 24.193-100.304z" />
<glyph unicode="&#xe944;" glyph-name="gift" horiz-adv-x="1006" d="M599.281 246.476v386.413h-172.698v-386.413q0-13.492 9.715-20.778t24.826-7.285h103.619q15.111 0 24.826 7.285t9.715 20.778zM353.185 701.968h105.238l-68 86.889q-14.032 16.73-37.238 16.73-21.587 0-36.698-15.111t-15.111-36.698 15.111-36.698 36.698-15.111zM724.487 753.778q0 21.587-15.111 36.698t-36.698 15.111q-23.206 0-37.238-16.73l-67.461-86.889h104.698q21.587 0 36.698 15.111t15.111 36.698zM927.408 615.619v-172.698q0-7.556-4.857-12.413t-12.413-4.857h-51.809v-224.508q0-21.587-15.111-36.698t-36.698-15.111h-587.174q-21.587 0-36.698 15.111t-15.111 36.698v224.508h-51.809q-7.556 0-12.413 4.857t-4.857 12.413v172.698q0 7.556 4.857 12.413t12.413 4.857h237.461q-50.191 0-85.539 35.35t-35.35 85.539 35.35 85.539 85.539 35.35q57.746 0 90.667-41.556l69.080-89.048 69.079 89.048q32.921 41.556 90.667 41.556 50.191 0 85.539-35.35t35.35-85.539-35.35-85.539-85.539-35.35h237.461q7.556 0 12.413-4.857t4.857-12.413z" />
<glyph unicode="&#xe945;" glyph-name="glass" d="M847.317 835.209q0-14.616-17.955-32.571l-263.913-263.913v-320.705h133.627q10.855 0 18.79-7.935t7.935-18.79-7.935-18.79-18.79-7.935h-374.155q-10.855 0-18.79 7.935t-7.935 18.79 7.935 18.79 18.79 7.935h133.627v320.705l-263.913 263.913q-17.955 17.955-17.955 32.571 0 9.603 7.516 15.241t15.87 7.306 17.955 1.669h587.953q9.603 0 17.955-1.669t15.87-7.306 7.516-15.241z" />
<glyph unicode="&#xe946;" glyph-name="book" horiz-adv-x="1017" d="M910.556 716.022q19.524-27.822 8.786-62.965l-134.226-442.21q-9.273-31.237-37.339-52.471t-59.791-21.233h-450.512q-37.583 0-72.482 26.113t-48.565 64.184q-11.709 32.703-0.973 61.987 0 1.953 1.465 13.179t1.953 18.059q0.487 3.905-1.465 10.495t-1.465 9.517q0.973 5.366 3.905 10.255t8.054 11.47 8.054 11.47q11.226 18.549 21.964 44.66t14.648 44.66q1.465 4.88 0.244 14.648t-0.244 13.666q1.465 5.366 8.298 13.666t8.298 11.226q10.255 17.571 20.495 44.906t12.201 43.929q0.487 4.393-1.219 15.619t0.244 13.666q1.953 6.346 10.738 14.888t10.738 10.982q9.273 12.691 20.741 41.245t13.422 47.098q0.487 3.905-1.465 12.447t-0.973 12.935q0.973 3.905 4.393 8.786t8.786 11.226 8.298 10.255q3.905 5.858 8.054 14.888t7.316 17.084 7.808 17.571 9.517 15.619 12.935 11.47 17.571 5.612 23.183-2.684l-0.487-1.465q18.549 4.393 24.892 4.393h371.44q36.12 0 55.642-27.33t8.786-63.453l-133.738-442.21q-17.571-58.080-34.899-74.922t-62.719-16.84h-424.154q-13.179 0-18.549-7.316-5.366-7.808-0.487-20.987 11.709-34.17 70.286-34.17h450.512q14.156 0 27.33 7.562t17.084 20.255l146.429 481.746q3.42 10.738 2.44 27.822 18.549-7.316 28.797-20.987zM391.224 715.044q-1.953-6.346 0.973-10.982t9.763-4.637h296.762q6.346 0 12.447 4.637t8.054 10.982l10.255 31.237q1.953 6.346-0.973 10.982t-9.763 4.637h-296.762q-6.346 0-12.447-4.637t-8.054-10.982zM350.715 590.094q-1.953-6.346 0.973-10.982t9.763-4.637h296.762q6.346 0 12.447 4.637t8.054 10.982l10.255 31.237q1.953 6.346-0.973 10.982t-9.763 4.637h-296.762q-6.346 0-12.447-4.637t-8.054-10.982z" />
<glyph unicode="&#xe947;" glyph-name="clipboard" d="M769.335 179.536v590.661h-72.537v-110.534h-369.596v110.534h-72.537v-590.661h514.67zM512 842.736c-20.724 0-36.27-15.543-36.27-36.27s15.543-36.27 36.27-36.27 36.27 15.543 36.27 36.27-15.543 36.27-36.27 36.27zM769.335 842.736c39.724 0 74.264-32.814 74.264-72.537v-590.661c0-39.724-34.542-72.537-74.264-72.537h-514.67c-39.724 0-74.264 32.814-74.264 72.537v590.661c0 39.724 34.542 72.537 74.264 72.537h153.709c15.543 43.178 55.267 74.264 103.626 74.264s88.080-31.087 103.626-74.264h153.709z" />
<glyph unicode="&#xe948;" glyph-name="user" horiz-adv-x="1018" d="M901.83 235.282q0-65.238-39.686-103.022t-105.468-37.783h-475.151q-65.782 0-105.468 37.783t-39.686 103.022q0 28.814 1.903 56.268t7.611 59.258 14.407 58.986 23.377 53.006 33.707 44.036 46.482 29.085 60.617 10.873q4.893 0 22.833-11.689t40.502-26.096 58.714-26.096 72.578-11.689 72.578 11.689 58.714 26.096 40.502 26.096 22.833 11.689q33.163 0 60.617-10.873t46.482-29.085 33.707-44.036 23.377-53.006 14.407-58.986 7.611-59.258 1.903-56.268zM727.862 720.762q0-86.44-61.161-147.601t-147.601-61.161-147.601 61.161-61.161 147.601 61.161 147.601 147.601 61.161 147.601-61.161 61.161-147.601z" />
<glyph unicode="&#xe949;" glyph-name="file-pdf" horiz-adv-x="1006" d="M845.080 757.714q13.332-13.332 22.857-36.19t9.525-41.906v-548.57q0-19.049-13.332-32.381t-32.381-13.332h-640q-19.049 0-32.381 13.332t-13.332 32.381v761.906q0 19.049 13.332 32.381t32.381 13.332h426.668q19.049 0 41.906-9.525t36.19-22.857zM633.65 873.907v-179.049h179.049q-4.762 13.81-10.475 19.525l-149.049 149.049q-5.713 5.713-19.525 10.475zM816.508 146.288v487.619h-198.094q-19.049 0-32.381 13.332t-13.332 32.381v198.094h-365.713v-731.429h609.525zM571.748 428.669q15.713-12.381 40-26.668 28.094 3.332 55.713 3.332 70 0 84.287-23.332 7.619-10.475 0.951-24.762 0-0.475-0.475-0.951l-0.951-0.951v-0.475q-2.857-18.094-33.81-18.094-22.857 0-54.762 9.525t-61.906 25.238q-105.238-11.43-186.668-39.525-72.857-124.762-115.238-124.762-7.143 0-13.332 3.332l-11.43 5.713q-0.475 0.475-2.857 2.381-4.762 4.762-2.857 17.143 4.287 19.049 26.668 43.57t62.857 45.951q6.668 4.287 10.951-2.857 0.951-0.951 0.951-1.906 24.762 40.475 50.951 93.81 32.381 64.762 49.525 124.762-11.43 39.049-14.525 75.951t3.094 60.713q5.238 19.049 20 19.049h10.475q10.951 0 16.668-7.143 8.57-10 4.287-32.381-0.951-2.857-1.906-3.81 0.475-1.43 0.475-3.81v-14.287q-0.951-58.57-6.668-91.43 26.19-78.094 69.525-113.332zM297.461 232.952q24.762 11.43 65.238 75.238-24.287-19.049-41.668-40t-23.57-35.238zM486.986 671.050q-7.143-20-0.951-62.857 0.475 3.332 3.332 20.951 0 1.43 3.332 20.475 0.475 1.906 1.906 3.81-0.475 0.475-0.475 0.951t-0.238 0.713-0.238 0.713q-0.475 10.475-6.19 17.143 0-0.475-0.475-0.951v-0.951zM427.937 356.288q64.287 25.713 135.238 38.57-0.951 0.475-6.19 4.525t-7.619 6.43q-36.19 31.906-60.475 83.81-12.857-40.951-39.525-93.81-14.287-26.668-21.43-39.525zM735.556 363.907q-11.43 11.43-66.668 11.43 36.19-13.332 59.049-13.332 6.668 0 8.57 0.475 0 0.475-0.951 1.43z" />
<glyph unicode="&#xe94a;" glyph-name="file-word" horiz-adv-x="1006" d="M845.080 757.714q13.332-13.332 22.857-36.19t9.525-41.906v-548.57q0-19.049-13.332-32.381t-32.381-13.332h-640q-19.049 0-32.381 13.332t-13.332 32.381v761.906q0 19.049 13.332 32.381t32.381 13.332h426.668q19.049 0 41.906-9.525t36.19-22.857zM633.65 873.907v-179.049h179.049q-4.762 13.81-10.475 19.525l-149.049 149.049q-5.713 5.713-19.525 10.475zM816.508 146.288v487.619h-198.094q-19.049 0-32.381 13.332t-13.332 32.381v198.094h-365.713v-731.429h609.525zM256.986 572.952v-50.951h33.332l78.094-314.762h75.713l60.951 230.951q3.332 9.525 4.762 21.906 0.951 7.619 0.951 11.43h1.906l1.43-11.43q0.475-1.43 1.668-9.525t2.619-12.381l60.951-230.951h75.713l78.094 314.762h33.332v50.951h-142.857v-50.951h42.857l-47.143-208.57q-2.381-9.525-3.332-21.906l-0.951-10h-1.906l-1.43 10q-0.475 2.381-1.906 10t-2.381 11.906l-68.57 259.525h-54.287l-68.57-259.525q-0.951-4.287-2.143-11.668t-1.668-10.238l-1.906-10h-1.906l-0.951 10q-0.951 12.381-3.332 21.906l-47.143 208.57h42.857v50.951h-142.857z" />
<glyph unicode="&#xe94b;" glyph-name="file-excel" horiz-adv-x="1006" d="M845.080 757.714q13.332-13.332 22.857-36.19t9.525-41.906v-548.57q0-19.049-13.332-32.381t-32.381-13.332h-640q-19.049 0-32.381 13.332t-13.332 32.381v761.906q0 19.049 13.332 32.381t32.381 13.332h426.668q19.049 0 41.906-9.525t36.19-22.857zM633.65 873.907v-179.049h179.049q-4.762 13.81-10.475 19.525l-149.049 149.049q-5.713 5.713-19.525 10.475zM816.508 146.288v487.619h-198.094q-19.049 0-32.381 13.332t-13.332 32.381v198.094h-365.713v-731.429h609.525zM350.318 257.714v-50.475h133.81v50.475h-35.713l49.049 76.668q2.381 3.332 4.762 7.857t3.57 6.43 1.668 1.906h0.951q0.475-1.906 2.381-4.762 0.951-1.906 2.143-3.57t2.857-3.81 3.094-4.049l50.951-76.668h-36.19v-50.475h138.57v50.475h-32.381l-91.43 130 92.857 134.287h31.906v50.951h-132.857v-50.951h35.238l-49.049-75.713q-1.906-3.332-4.762-7.857t-4.287-6.43l-0.951-1.43h-0.951q-0.475 1.906-2.381 4.762-2.857 5.238-8.094 10.951l-50.475 75.713h36.19v50.951h-138.094v-50.951h32.381l90-129.525-92.381-134.762h-32.381z" />
<glyph unicode="&#xe94c;" glyph-name="file-powerpoint" horiz-adv-x="1006" d="M845.080 757.714q13.332-13.332 22.857-36.19t9.525-41.906v-548.57q0-19.049-13.332-32.381t-32.381-13.332h-640q-19.049 0-32.381 13.332t-13.332 32.381v761.906q0 19.049 13.332 32.381t32.381 13.332h426.668q19.049 0 41.906-9.525t36.19-22.857zM633.65 873.907v-179.049h179.049q-4.762 13.81-10.475 19.525l-149.049 149.049q-5.713 5.713-19.525 10.475zM816.508 146.288v487.619h-198.094q-19.049 0-32.381 13.332t-13.332 32.381v198.094h-365.713v-731.429h609.525zM344.128 257.714v-50.475h155.713v50.475h-44.287v79.525h65.238q36.19 0 56.19 7.143 31.906 10.951 50.713 41.43t18.81 69.525q0 38.57-17.619 67.143t-47.619 41.43q-22.857 9.049-61.906 9.049h-175.238v-50.951h43.81v-264.287h-43.81zM512.224 391.050h-56.668v127.619h57.143q24.762 0 39.525-8.57 26.668-15.713 26.668-54.762 0-42.381-29.525-57.143-14.762-7.143-37.143-7.143z" />
<glyph unicode="&#xe94d;" glyph-name="file-image" horiz-adv-x="1006" d="M845.080 757.714q13.332-13.332 22.857-36.19t9.525-41.906v-548.57q0-19.049-13.332-32.381t-32.381-13.332h-640q-19.049 0-32.381 13.332t-13.332 32.381v761.906q0 19.049 13.332 32.381t32.381 13.332h426.668q19.049 0 41.906-9.525t36.19-22.857zM633.65 873.907v-179.049h179.049q-4.762 13.81-10.475 19.525l-149.049 149.049q-5.713 5.713-19.525 10.475zM816.508 146.288v487.619h-198.094q-19.049 0-32.381 13.332t-13.332 32.381v198.094h-365.713v-731.429h609.525zM755.556 359.62v-152.381h-487.619v91.43l91.43 91.43 60.951-60.951 182.857 182.857zM359.367 451.050q-38.094 0-64.762 26.668t-26.668 64.762 26.668 64.762 64.762 26.668 64.762-26.668 26.668-64.762-26.668-64.762-64.762-26.668z" />
<glyph unicode="&#xe94e;" glyph-name="file-archive" horiz-adv-x="1006" d="M450.793 755.81v60.951h-60.951v-60.951h60.951zM511.748 694.858v60.951h-60.951v-60.951h60.951zM450.793 633.907v60.951h-60.951v-60.951h60.951zM511.748 572.952v60.951h-60.951v-60.951h60.951zM845.080 757.714q13.332-13.332 22.857-36.19t9.525-41.906v-548.57q0-19.049-13.332-32.381t-32.381-13.332h-640q-19.049 0-32.381 13.332t-13.332 32.381v761.906q0 19.049 13.332 32.381t32.381 13.332h426.668q19.049 0 41.906-9.525t36.19-22.857zM633.65 873.907v-179.049h179.049q-4.762 13.81-10.475 19.525l-149.049 149.049q-5.713 5.713-19.525 10.475zM816.508 146.288v487.619h-198.094q-19.049 0-32.381 13.332t-13.332 32.381v198.094h-60.951v-60.951h-60.951v60.951h-243.81v-731.429h609.525zM517.937 489.62l50.951-166.19q3.81-12.857 3.81-24.762 0-39.525-34.525-65.475t-87.381-25.951-87.381 25.951-34.525 65.475q0 11.906 3.81 24.762 10 30 57.143 188.57v60.951h60.951v-60.951h37.619q10.475 0 18.57-6.19t10.951-16.19zM450.793 268.19q25.238 0 43.094 9.049t17.857 21.43-17.857 21.43-43.094 9.049-43.094-9.049-17.857-21.43 17.857-21.43 43.094-9.049z" />
<glyph unicode="&#xe94f;" glyph-name="file-audio" horiz-adv-x="1006" d="M845.080 757.714q13.332-13.332 22.857-36.19t9.525-41.906v-548.57q0-19.049-13.332-32.381t-32.381-13.332h-640q-19.049 0-32.381 13.332t-13.332 32.381v761.906q0 19.049 13.332 32.381t32.381 13.332h426.668q19.049 0 41.906-9.525t36.19-22.857zM633.65 873.907v-179.049h179.049q-4.762 13.81-10.475 19.525l-149.049 149.049q-5.713 5.713-19.525 10.475zM816.508 146.288v487.619h-198.094q-19.049 0-32.381 13.332t-13.332 32.381v198.094h-365.713v-731.429h609.525zM441.269 533.907q9.525-3.81 9.525-14.287v-259.049q0-10.475-9.525-14.287-3.81-0.951-5.713-0.951-5.713 0-10.951 4.287l-79.049 79.525h-62.381q-6.668 0-10.951 4.287t-4.287 10.951v91.43q0 6.668 4.287 10.951t10.951 4.287h62.381l79.049 79.525q7.619 7.143 16.668 3.332zM639.842 205.81q14.762 0 23.81 11.43 61.43 75.713 61.43 172.857t-61.43 172.857q-7.619 10-20.475 11.43t-22.381-6.668q-10-8.094-11.19-20.713t6.906-22.619q47.619-58.57 47.619-134.287t-47.619-134.287q-8.094-10-6.906-22.619t11.19-20.238q8.57-7.143 19.049-7.143zM539.367 276.288q12.857 0 22.381 9.525 41.43 44.287 41.43 104.287t-41.43 104.287q-8.57 9.049-21.43 9.525t-21.906-8.094-9.525-21.19 8.57-22.143q24.762-27.143 24.762-62.381t-24.762-62.381q-9.049-9.525-8.57-22.143t9.525-21.19q9.525-8.094 20.951-8.094z" />
<glyph unicode="&#xe950;" glyph-name="file-video" horiz-adv-x="1006" d="M845.080 757.714q13.332-13.332 22.857-36.19t9.525-41.906v-548.57q0-19.049-13.332-32.381t-32.381-13.332h-640q-19.049 0-32.381 13.332t-13.332 32.381v761.906q0 19.049 13.332 32.381t32.381 13.332h426.668q19.049 0 41.906-9.525t36.19-22.857zM633.65 873.907v-179.049h179.049q-4.762 13.81-10.475 19.525l-149.049 149.049q-5.713 5.713-19.525 10.475zM816.508 146.288v487.619h-198.094q-19.049 0-32.381 13.332t-13.332 32.381v198.094h-365.713v-731.429h609.525zM511.748 572.952q24.762 0 42.857-18.094t18.094-42.857v-182.857q0-24.762-18.094-42.857t-42.857-18.094h-182.857q-24.762 0-42.857 18.094t-18.094 42.857v182.857q0 24.762 18.094 42.857t42.857 18.094h182.857zM746.031 572.001q9.525-3.81 9.525-14.287v-274.287q0-10.475-9.525-14.287-3.81-0.951-5.713-0.951-6.668 0-10.951 4.287l-126.19 126.668v42.857l126.19 126.668q4.287 4.287 10.951 4.287 1.906 0 5.713-0.951z" />
<glyph unicode="&#xe951;" glyph-name="file-code" horiz-adv-x="1006" d="M845.080 757.714q13.332-13.332 22.857-36.19t9.525-41.906v-548.57q0-19.049-13.332-32.381t-32.381-13.332h-640q-19.049 0-32.381 13.332t-13.332 32.381v761.906q0 19.049 13.332 32.381t32.381 13.332h426.668q19.049 0 41.906-9.525t36.19-22.857zM633.65 873.907v-179.049h179.049q-4.762 13.81-10.475 19.525l-149.049 149.049q-5.713 5.713-19.525 10.475zM816.508 146.288v487.619h-198.094q-19.049 0-32.381 13.332t-13.332 32.381v198.094h-365.713v-731.429h609.525zM374.605 572.952q3.81 5.238 10 5.951t11.43-3.094l24.287-18.094q5.238-3.81 5.951-10t-3.094-11.43l-86.668-115.713 86.668-115.713q3.81-5.238 3.094-11.43t-5.951-10l-24.287-18.094q-5.238-3.81-11.43-3.094t-10 5.951l-107.619 143.332q-6.668 9.049 0 18.094zM756.508 429.62q6.668-9.049 0-18.094l-107.619-143.332q-3.81-5.238-10-5.951t-11.43 3.094l-24.287 18.094q-5.238 3.81-5.951 10t3.094 11.43l86.668 115.713-86.668 115.713q-3.81 5.238-3.094 11.43t5.951 10l24.287 18.094q5.238 3.81 11.43 3.094t10-5.951zM461.269 210.095q-6.19 0.951-9.762 6.19t-2.619 11.43l65.713 395.713q0.951 6.19 6.19 9.762t11.43 2.619l30-4.762q6.19-0.951 9.762-6.19t2.619-11.43l-65.713-395.713q-0.951-6.19-6.19-9.762t-11.43-2.619z" />
<glyph unicode="&#xe952;" glyph-name="copyright" horiz-adv-x="1006" d="M698.42 425.118v-53.202q0-24.404-17.815-43.441t-45.881-29.529-57.595-15.862-57.351-5.368q-100.061 0-167.172 67.846t-67.114 168.881q0 99.083 66.38 165.463t165.463 66.38q16.596 0 36.852-2.196t45.394-8.786 45.15-16.596 33.678-27.578 13.666-39.536v-53.202q0-7.811-7.811-7.811h-57.595q-7.811 0-7.811 7.811v34.168q0 20.989-31.971 32.946t-67.114 11.957q-68.333 0-111.53-44.66t-43.197-115.923q0-73.704 44.66-121.779t113.971-48.078q33.19 0 67.358 11.713t34.168 32.215v34.168q0 3.418 2.196 5.614t5.124 2.196h58.083q2.928 0 5.368-2.196t2.44-5.614zM511.968 824.38q-63.453 0-121.291-24.892t-99.57-66.624-66.624-99.57-24.892-121.291 24.892-121.291 66.624-99.57 99.57-66.624 121.291-24.892 121.291 24.892 99.57 66.624 66.624 99.57 24.892 121.291-24.892 121.291-66.624 99.57-99.57 66.624-121.291 24.892zM886.825 512q0-102.011-50.274-188.162t-136.422-136.422-188.162-50.274-188.162 50.274-136.422 136.422-50.274 188.162 50.274 188.162 136.422 136.422 188.162 50.274 188.162-50.274 136.422-136.422 50.274-188.162z" />
<glyph unicode="&#xe953;" glyph-name="at" horiz-adv-x="1006" d="M611.541 571.058q0 52.714-26.113 82.489t-71.995 29.775q-30.75 0-60.525-14.888t-53.689-41.245-38.805-66.868-14.888-87.857q0-54.667 26.113-84.439t73.457-29.775q46.856 0 85.904 32.459t59.791 81.024 20.743 99.327zM886.825 511.998q0-54.18-18.059-96.155t-48.078-65.893-64.184-36.364-70.773-13.422q-2.928 0-7.564-0.244t-8.055-0.244q-46.369 0-69.31 25.87-13.666 16.106-16.106 40.511-25.382-32.215-64.184-53.689t-84.685-21.477q-78.584 0-121.778 46.612t-43.197 131.542q0 76.631 32.215 141.546t87.37 102.745 120.072 37.827q42.463 0 75.653-17.328t51.739-48.565l0.975 9.273 5.368 27.332q0.487 2.928 2.684 5.858t4.637 2.928h57.595q2.44 0 6.346-5.368 2.44-2.44 1.465-7.81l-58.572-299.689q-2.44-11.713-2.44-23.43 0-19.037 6.102-25.382t21.721-6.346q13.666 0.487 27.822 2.684t35.63 11.713 37.583 24.404 27.822 43.685 11.713 66.868q0 142.524-84.93 227.452t-227.452 84.93q-63.453 0-121.291-24.892t-99.57-66.624-66.624-99.57-24.892-121.291 24.892-121.291 66.624-99.57 99.57-66.624 121.291-24.892q111.287 0 197.679 70.286 5.368 4.393 11.713 3.905t10.251-5.858l20.012-23.917q3.905-5.858 3.418-11.713-0.975-6.346-5.858-10.738-49.787-40.511-111.042-62.475t-126.171-21.964q-76.144 0-145.452 29.775t-119.582 80.046-80.046 119.582-29.775 145.452 29.775 145.452 80.046 119.582 119.582 80.046 145.452 29.775q167.903 0 271.381-103.476t103.476-271.381z" />
<glyph unicode="&#xe954;" glyph-name="trademark" horiz-adv-x="1021" d="M458.032 706.285v-47.357q0-5.261-3.845-8.903t-9.107-3.643h-120.619v-328.668q0-5.261-3.643-9.107t-8.903-3.845h-54.643q-5.261 0-9.107 3.643t-3.845 9.311v328.668h-120.214q-5.261 0-9.107 3.643t-3.845 8.903v47.357q0 5.668 3.643 9.311t9.311 3.643h320.977q5.261 0 9.107-3.845t3.845-9.107zM878.175 707.499l31.168-388.977q0.403-5.261-3.239-9.714-4.046-4.046-9.311-4.046h-54.239q-4.857 0-8.5 3.441t-4.046 8.298l-18.618 238-76.5-172.025q-3.239-7.689-11.739-7.689h-48.571q-8.097 0-11.739 7.689l-76.097 172.833-18.214-238.811q-0.403-4.857-4.046-8.298t-8.5-3.441h-54.643q-5.261 0-9.311 4.046-3.643 4.046-3.643 9.714l31.571 388.977q0.403 4.857 4.046 8.298t8.5 3.441h57.475q8.097 0 11.739-7.689l89.047-210.476q4.046-9.714 8.097-20.643 1.214 2.832 3.845 9.916t4.25 10.727l89.454 210.476q3.643 7.689 11.739 7.689h57.071q5.261 0 8.903-3.441t4.046-8.298z" />
<glyph unicode="&#xe955;" glyph-name="registered" d="M581.525 603.906q0 41.906-28.57 57.619-15.713 8.57-55.713 8.57h-58.57v-133.81h77.143q31.43 0 48.57 17.619t17.143 50zM606.287 468.19l97.619-177.619q3.81-8.094-0.475-14.762-3.81-7.619-12.857-7.619h-72.381q-9.525 0-13.332 8.094l-92.381 173.81h-73.81v-166.668q0-6.668-4.287-10.951t-10.951-4.287h-63.81q-6.668 0-10.951 4.287t-4.287 10.951v457.143q0 6.668 4.287 10.951t10.951 4.287h140q60.951 0 90.475-11.43 40.475-14.762 63.81-51.906t23.332-85.713q0-43.81-20.238-78.81t-55-52.143q2.857-4.762 4.287-7.619zM512 862.475q-71.43 0-136.191-27.857t-111.668-74.762-74.762-111.668-27.857-136.191 27.857-136.19 74.762-111.668 111.668-74.762 136.191-27.857 136.191 27.857 111.668 74.762 74.762 111.668 27.857 136.19-27.857 136.191-74.762 111.668-111.668 74.762-136.191 27.857zM938.668 512q0-86.668-33.81-165.713t-90.951-136.191-136.191-90.951-165.713-33.81-165.713 33.81-136.191 90.951-90.951 136.191-33.81 165.713 33.81 165.713 90.951 136.191 136.191 90.951 165.713 33.81 165.713-33.81 136.191-90.951 90.951-136.191 33.81-165.713z" />
<glyph unicode="&#xe956;" glyph-name="creative-commons" d="M373.43 351.525q72.857 0 122.381 49.525 6.668 8.57 1.43 17.143l-21.43 39.049q-2.857 6.19-11.43 8.094-7.619 0.951-12.857-5.238l-1.906-1.43q-1.906-1.906-5.475-4.762t-8.332-6.19-11.19-6.906-13.57-6.43-15.951-4.525-17.857-1.668q-36.19 0-59.525 23.81t-23.332 60.475q0 36.19 22.857 59.762t58.094 23.57q17.619 0 34.049-6.668t24.049-13.332l7.619-6.668q5.238-5.238 12.381-4.762 7.619 0.951 11.43 6.668l25.238 37.143q6.19 9.525-0.951 18.57-1.43 1.906-5.238 5.713t-14.287 11.19-23.094 13.332-32.143 10.713-40.951 4.762q-70.475 0-117.143-45.951t-46.668-114.525q0-69.525 46.19-115t117.619-45.475zM673.429 351.525q72.857 0 122.381 49.525 6.668 8.57 1.906 17.143l-21.43 39.049q-3.81 6.668-11.906 8.094-7.619 0.951-12.857-5.238l-1.906-1.43q-1.906-1.906-5.475-4.762t-8.332-6.19-11.19-6.906-13.57-6.43-15.951-4.525-17.857-1.668q-36.19 0-59.525 23.81t-23.332 60.475q0 36.19 22.857 59.762t58.094 23.57q17.619 0 34.049-6.668t24.049-13.332l7.619-6.668q5.238-5.238 12.381-4.762 7.619 0.951 11.43 6.668l25.238 37.143q6.19 9.525-0.951 18.57-1.43 1.906-5.238 5.713t-14.287 11.19-23.094 13.332-32.143 10.713-40.951 4.762q-70 0-116.906-45.951t-46.906-114.525q0-69.525 46.19-115t117.619-45.475zM512 862.475q-71.43 0-136.189-27.857t-111.668-74.762-74.762-111.668-27.857-136.189 27.857-136.189 74.762-111.668 111.668-74.762 136.189-27.857 136.189 27.857 111.668 74.762 74.762 111.668 27.857 136.189-27.857 136.189-74.762 111.668-111.668 74.762-136.189 27.857zM512 938.667q86.668 0 165.713-33.81t136.189-90.951 90.951-136.189 33.81-165.713-33.81-165.713-90.951-136.189-136.189-90.951-165.713-33.81-165.713 33.81-136.189 90.951-90.951 136.189-33.81 165.713 33.81 165.713 90.951 136.189 136.189 90.951 165.713 33.81z" />
<glyph unicode="&#xe957;" glyph-name="diamond" horiz-adv-x="1021" d="M171.401 592.176l260.156-277.694-125.277 277.694h-134.879zM510.476 269.803l145.735 322.373h-291.474zM307.534 645.627l85.185 160.353h-109.406l-120.262-160.353h144.482zM589.4 314.482l260.156 277.694h-134.879zM368.083 645.627h284.792l-85.185 160.353h-114.415zM713.423 645.627h144.482l-120.262 160.353h-109.406zM772.3 848.569l160.353-213.803q5.846-7.516 5.431-17.33t-7.098-16.913l-400.881-427.607q-7.516-8.351-19.627-8.351t-19.627 8.351l-400.881 427.607q-6.683 7.098-7.098 16.913t5.431 17.33l160.353 213.803q7.516 10.855 21.295 10.855h481.056q13.781 0 21.295-10.855z" />
</font>
</defs>
</svg>
