<?xml version="1.0" standalone="no"?>
<!DOCTYPE svg PUBLIC "-//W3C//DTD SVG 1.1//EN" "http://www.w3.org/Graphics/SVG/1.1/DTD/svg11.dtd" >
<svg xmlns="http://www.w3.org/2000/svg">
<metadata></metadata>
<defs>
<font id="theacademy_bolditalicBdIt" horiz-adv-x="1019" >
<font-face units-per-em="2048" ascent="1434" descent="-614" />
<missing-glyph horiz-adv-x="534" />
<glyph horiz-adv-x="0" />
<glyph horiz-adv-x="682" />
<glyph unicode=" "  horiz-adv-x="534" />
<glyph unicode="&#x09;" horiz-adv-x="534" />
<glyph unicode="&#xa0;" horiz-adv-x="534" />
<glyph unicode="!" horiz-adv-x="659" d="M193 0l63 301h301l-63 -301h-301zM299 444l156 902h350l-232 -902h-274z" />
<glyph unicode="&#x22;" horiz-adv-x="897" d="M328 1116l57 262h303l-55 -258l-129 -282h-164zM737 1116l58 262h303l-56 -258l-129 -282h-163z" />
<glyph unicode="#" horiz-adv-x="1306" d="M111 420l79 194h271l74 177h-271l80 194h268l260 637h220l-258 -637h155l260 637h219l-258 -637h279l-86 -194h-273l-73 -177h278l-86 -194h-270l-254 -619h-217l252 619h-158l-254 -619h-217l252 619h-272zM680 614h158l73 177h-157z" />
<glyph unicode="$" horiz-adv-x="1122" d="M184 352l174 123q18 -29 48 -55q25 -23 61.5 -46.5t89.5 -37.5l57 266q-53 18 -104 42t-89 59.5t-55.5 87t-5.5 122.5q12 70 50.5 120t90.5 83t114.5 51.5t123.5 26.5l37 166h174l-37 -166q82 -12 138.5 -44t91.5 -65q41 -39 67 -84l-170 -133q-18 29 -41 56 q-20 23 -50.5 46t-74.5 40l-53 -252q55 -20 109.5 -45t94.5 -61t58.5 -87t3.5 -125q-10 -53 -44.5 -100t-87 -85t-119 -64.5t-142.5 -34.5l-37 -174h-174l37 174q-102 10 -167.5 42.5t-102.5 67.5q-45 39 -66 86zM590 924q-6 -35 14.5 -59.5t57.5 -45.5l40 199 q-41 -10 -71.5 -31.5t-40.5 -62.5zM731 332q47 12 78 40.5t37 76.5q6 33 -14.5 55t-55.5 39z" />
<glyph unicode="%" horiz-adv-x="1333" d="M127 63l975 1133q-43 -12 -80 -16q-33 -4 -65.5 -1t-53.5 21q6 -29 7 -58.5t-7 -64.5q-12 -59 -46 -112.5t-81 -93.5t-104.5 -62.5t-116.5 -22.5t-106.5 22.5t-77 62.5t-41 93.5t1.5 112.5q12 59 46 112.5t81 93.5t103 62.5t116 22.5q63 0 121 -29q43 -12 94 -20 q41 -8 94 -14.5t107 -6.5q53 0 90 12.5t59 28.5q27 18 43 41l162 -96l-1116 -1339zM530 1077q-14 -68 0.5 -115t49.5 -47t68.5 47.5t47.5 114.5q16 68 1 115t-50 47t-67.5 -47t-49.5 -115zM706.5 143.5q-10.5 53.5 2.5 112.5q12 59 45.5 112.5t81 93.5t103.5 62.5t116 22.5 q59 0 106 -22.5t78 -62.5t42 -93.5t-1 -112.5t-46 -112.5t-82 -93.5t-104.5 -62.5t-115.5 -22.5t-106.5 22.5t-78 62.5t-41 93.5zM906.5 141q13.5 -47 47.5 -47q35 0 70 47t49 115t0 115t-49 47t-68.5 -47t-48.5 -115q-14 -68 -0.5 -115z" />
<glyph unicode="&#x26;" horiz-adv-x="1206" d="M207 293q6 84 50 142.5t95 92.5q59 41 133 68q-27 37 -45 78q-16 35 -25 79t1 91q14 70 51 127t92 97t127 61.5t158 19.5q61 -2 112.5 -23.5t85 -61.5t46 -96.5t-2.5 -123.5q-16 -70 -65 -127.5t-102 -98.5q-63 -49 -138 -86l101 -178q25 14 46 48t38 69q18 41 34 88 l226 -43q-23 -72 -62 -134.5t-80 -109.5q-47 -53 -98 -100l84 -129l-190 -102l-64 118q-45 -25 -96 -43q-43 -16 -96.5 -29.5t-106.5 -13.5q-174 0 -247.5 84t-61.5 236zM446 309q-10 -45 7.5 -76.5t54.5 -44t86 -4t104 44.5l-123 226q-31 -10 -55 -31q-23 -16 -44 -44 t-30 -71zM645 850q-6 -29 1 -57.5t20 -51.5q12 -27 32 -53q41 16 76 39q29 20 56.5 51t37.5 74q10 41 -13.5 75t-74.5 34q-53 0 -90 -36t-45 -75z" />
<glyph unicode="'" horiz-adv-x="491" d="M334 1114l55 262h303l-53 -258l-129 -282h-164z" />
<glyph unicode="(" horiz-adv-x="923" d="M287 504q2 90 24 194q45 207 138.5 352.5t187.5 235.5q111 106 235 170l113 -176q-88 -51 -164 -133q-66 -70 -130 -177.5t-97 -260.5q-33 -154 -17.5 -274t46.5 -206q37 -98 94 -176l-178 -157q-94 78 -158 192q-27 49 -49.5 111.5t-34.5 138.5t-10 166z" />
<glyph unicode=")" horiz-adv-x="925" d="M166 53q88 78 168 176q68 86 134.5 206t98.5 274q33 154 12.5 261t-55.5 177q-43 82 -106 133l190 176q98 -63 164 -170q27 -45 50.5 -103.5t35.5 -132t11 -160.5t-23 -192q-23 -104 -58.5 -194t-79.5 -166t-93.5 -138.5t-96.5 -111.5q-113 -115 -239 -192z" />
<glyph unicode="*" horiz-adv-x="1153" d="M371 905l49 234l198 -29l-108 164l227 127l80 -227l168 227l176 -139l-182 -164l223 24l-47 -225l-213 45l105 -158l-228 -133l-63 213l-156 -211l-170 129l158 160z" />
<glyph unicode="+" horiz-adv-x="1185" d="M160 641l41 195h461l96 448h211l-97 -448h461l-41 -195h-461l-98 -461h-211l99 461h-461z" />
<glyph unicode="," horiz-adv-x="628" d="M119 2q47 -4 88 31q35 29 68.5 98.5t46.5 208.5h319q-8 -70 -31.5 -143.5t-73 -142t-130 -125t-205.5 -93.5z" />
<glyph unicode="-" horiz-adv-x="1132" d="M365 442l43 197h602l-43 -197h-602z" />
<glyph unicode="." horiz-adv-x="540" d="M141 0l72 340h326l-72 -340h-326z" />
<glyph unicode="/" horiz-adv-x="1155" d="M137 -49l932 1571h246l-932 -1571h-246z" />
<glyph unicode="0" horiz-adv-x="1146" d="M219 380q8 128 43 294q33 154 77 279.5t111.5 217t166 140.5t239.5 49q154 0 231.5 -55.5t103.5 -145.5t12.5 -204.5t-38.5 -235.5q-39 -180 -85 -317.5t-114.5 -230.5t-169 -141t-247.5 -48q-131 0 -205 46t-103.5 135t-21.5 217zM497 318.5q11 -111.5 107 -111.5 q55 0 96 27.5t74 86t60.5 149.5t54.5 218q25 117 36 201t4 139t-36 81t-86 26q-53 0 -91 -25t-69 -79t-57 -142t-53 -217q-51 -242 -40 -353.5z" />
<glyph unicode="1" horiz-adv-x="1146" d="M119 0l47 223h332l176 830l-238 -78l-39 221l621 184l-250 -1157h307l-47 -223h-909z" />
<glyph unicode="2" horiz-adv-x="1146" d="M133 0l39 186q170 160 309 289q59 55 117.5 110.5t108 101.5t84 80t47.5 46q47 51 76.5 90t39.5 84q4 23 4 48.5t-11 47t-33.5 36t-63.5 14.5q-70 0 -120 -39t-85 -86q-39 -55 -67 -125l-263 37q45 119 106.5 202.5t136.5 137t161 78t180 24.5q113 0 184.5 -34t110.5 -87 t47 -119.5t-6 -130.5q-12 -66 -42 -119t-65.5 -96t-72.5 -77.5t-64 -59.5q-14 -12 -41.5 -38t-63.5 -57.5t-78 -67.5t-83 -73q-98 -84 -213 -186h557l-45 -217h-891z" />
<glyph unicode="3" horiz-adv-x="1146" d="M133 -16l47 227q164 -12 285 10.5t203 66.5t127 104.5t57 123.5q12 61 -19.5 96t-93 46.5t-145.5 3t-176 -30.5l41 192l438 314h-537l46 206h886l-41 -188l-407 -291q188 -23 252.5 -118t31.5 -248q-20 -100 -76.5 -179t-136 -138.5t-177 -99.5t-201 -63.5t-208 -32 t-196.5 -1.5z" />
<glyph unicode="4" horiz-adv-x="1146" d="M176 309l445 1057l266 -47l-338 -787h213l127 605h276l-127 -605h111l-47 -223h-111l-65 -309h-277l66 309h-539z" />
<glyph unicode="5" horiz-adv-x="1146" d="M117 -16l47 227q164 -12 283.5 5t199.5 59t125 103.5t62 137.5q12 61 -9.5 99t-70.5 49.5t-123 -7t-164 -67.5l-170 39l152 717h831l-43 -207h-555l-59 -279q18 6 41 14q18 6 42.5 11.5t51.5 7.5q98 6 174 -16.5t123 -72.5t62 -127t-5 -179q-33 -152 -133 -256.5 t-239.5 -167t-303.5 -85t-319 -5.5z" />
<glyph unicode="6" horiz-adv-x="1146" d="M260 149.5q-72 167.5 0 512.5q74 346 232.5 521t369.5 175q94 0 164 -25.5t117 -56.5q53 -37 90 -80l-174 -178q-29 31 -64 55q-29 23 -69.5 40t-87.5 17q-37 0 -76 -20t-76 -58t-66.5 -94.5t-46.5 -130.5q31 18 68 33q31 12 74 23.5t94 11.5q104 0 173 -33t104.5 -91 t42 -136t-12.5 -166q-23 -102 -71 -190.5t-119.5 -155t-164.5 -104t-204 -37.5q-225 0 -297 167.5zM500 334q6 -53 31.5 -88t80.5 -35q72 0 133.5 58.5t83.5 168.5q23 111 2.5 169.5t-110.5 58.5q-37 0 -71 -12.5t-62 -28.5q-33 -18 -62 -41q-14 -63 -23 -130t-3 -120z" />
<glyph unicode="7" horiz-adv-x="1146" d="M166 53l762 1086h-537l43 207h932l-977 -1395z" />
<glyph unicode="8" horiz-adv-x="1146" d="M190 369q16 80 68.5 140t108.5 101q66 47 141 82q-51 27 -86 72q-29 39 -47.5 101.5t2.5 158.5q12 63 57 123.5t110.5 108t146.5 76t167 28.5q82 0 150.5 -26.5t114.5 -75t65.5 -117t1.5 -152.5q-18 -86 -61.5 -140t-90.5 -89q-53 -39 -116 -64q63 -31 108 -75 q39 -41 65.5 -101.5t8.5 -150.5t-71.5 -161t-128.5 -122t-165 -77.5t-184 -26.5t-170 30.5t-125 82.5t-68.5 123t-1.5 151zM446 348q-14 -61 28 -110.5t128 -49.5q47 0 87 15.5t71 39t50 52.5t26 57q10 53 -10.5 94t-51.5 70q-37 33 -86 55q-59 -18 -108 -49 q-41 -27 -81 -69.5t-53 -104.5zM631 1004q-10 -49 5 -87t38 -63q27 -31 65 -51q45 16 84 45q33 25 65 63.5t44 96.5q12 55 -18.5 100t-98.5 45q-37 0 -68.5 -14.5t-55 -36t-39 -48t-21.5 -50.5z" />
<glyph unicode="9" horiz-adv-x="1146" d="M195 152l174 178q29 -33 63 -58q29 -23 70 -39t88 -16q37 0 77 19.5t76.5 58.5t65.5 95t45 130q-31 -20 -68 -35q-33 -12 -75.5 -22t-94.5 -10q-104 0 -172.5 33.5t-104.5 92t-41 135.5t13 165q20 100 69.5 188t121 152.5t165 102.5t205.5 38q223 0 296 -165t-1 -511 q-37 -172 -95 -302t-136 -217t-172 -132t-201 -45q-96 0 -163.5 25.5t-114.5 56.5q-53 37 -90 82zM596.5 740q19.5 -58 110.5 -58q35 0 69.5 11.5t63.5 27.5q32 18 61 41q12 63 21.5 129.5t3.5 120t-32 88.5t-81 35q-72 0 -131 -57.5t-82 -168.5t-3.5 -169z" />
<glyph unicode=":" horiz-adv-x="696" d="M186 0l72 340h326l-72 -340h-326zM305 561l70 332h325l-69 -332h-326z" />
<glyph unicode=";" horiz-adv-x="696" d="M76 2q49 -4 90 31q35 29 67.5 98.5t47.5 208.5h319q-8 -70 -31.5 -143.5t-73 -142t-130 -125t-205.5 -93.5zM324 561l69 332h326l-70 -332h-325z" />
<glyph unicode="&#x3c;" horiz-adv-x="1177" d="M244 733l1036 768l92 -158l-827 -610l569 -612l-164 -154z" />
<glyph unicode="=" horiz-adv-x="1165" d="M115 463l41 194h1132l-41 -194h-1132zM186 807l41 194h1133l-41 -194h-1133z" />
<glyph unicode="&#x3e;" horiz-adv-x="1177" d="M111 121l831 612l-569 610l159 158l711 -768l-1034 -766z" />
<glyph unicode="?" horiz-adv-x="1155" d="M326 940q45 119 106.5 203t136 137t160.5 77.5t178 24.5q113 0 184.5 -33.5t110.5 -87t47 -120t-4 -129.5q-16 -76 -52 -133.5t-80 -101.5t-93 -82t-92 -75.5t-75 -79.5t-44 -98h-277q18 84 54.5 147.5t82.5 113t94 88t90 73.5t73 69t39 75q4 23 4 48t-11.5 46.5t-35 36 t-64.5 14.5q-70 0 -120 -39t-85 -86q-39 -55 -67 -125zM420 0l63 301h326l-64 -301h-325z" />
<glyph unicode="@" horiz-adv-x="1607" d="M273.5 423q-7.5 132 39.5 284q39 127 116 244.5t185.5 208.5t244.5 145.5t294 54.5q172 0 279.5 -53.5t160 -139.5t53.5 -194.5t-36 -218.5q-39 -111 -92.5 -189t-111.5 -128t-118.5 -72.5t-111.5 -22.5t-79 15.5t-40 33.5q-16 23 -19 49q-25 -27 -59 -49 q-29 -18 -73 -33.5t-97 -15.5q-78 0 -124 34t-62.5 89t-3 128t56.5 150q45 86 104.5 139.5t122 84t122.5 42t108 11.5q47 0 82.5 -5t58.5 -11q27 -8 45 -19l-152 -459q33 -16 70 2q33 16 73 65.5t83 160.5q29 78 34 153.5t-24 134t-98.5 94t-190.5 35.5q-111 0 -203 -35.5 t-164.5 -97t-126 -145.5t-88.5 -180q-43 -121 -43 -218.5t38 -166t112 -106.5t180 -40q80 -2 157 9.5t138 25.5q70 16 135 39l19 -182q-63 -25 -144 -45q-68 -16 -159 -30.5t-197 -16.5q-156 -2 -263.5 54t-165.5 155.5t-65.5 231.5zM791.5 583.5q-3.5 -30.5 5 -49t24 -25.5 t33.5 -7q39 0 73 16.5t65.5 56t63 111t66.5 182.5q-47 0 -91 -8t-85 -30.5t-75.5 -63.5t-59.5 -107q-16 -45 -19.5 -75.5z" />
<glyph unicode="A" horiz-adv-x="1048" d="M23 27l647 1319h274l88 -1319l-268 -68l-6 399h-320l-180 -399zM518 543h240l-2 547z" />
<glyph unicode="B" horiz-adv-x="1110" d="M94 0l47 223h111l192 914h-110l45 209h389q72 0 150.5 -8.5t140 -42t92.5 -104.5q17 -38 16 -91q0 -46 -12 -103q-16 -72 -48 -120t-67 -76q-39 -35 -86 -56q55 -20 93 -59q33 -36 52 -98q9 -30 9 -69q0 -41 -10 -93q-23 -102 -72 -181t-118.5 -133.5t-155.5 -83 t-181 -28.5h-477zM508 221h129q23 0 51.5 9.5t55 33t50 64.5t35.5 104q8 37 8 65q0 20 -4 37q-10 39 -31.5 59.5t-47 27t-43.5 6.5h-115zM637 825h106q18 0 42 7.5t45.5 24.5t41 48t29.5 80q5 26 5 46q0 18 -4 33q-9 30 -27.5 45t-40 20.5t-35.5 5.5h-97z" />
<glyph unicode="C" horiz-adv-x="1110" d="M217 392v14q0 125 33 280q35 164 96.5 290t141 212t177 130t201.5 44q61 0 108.5 -12.5t84.5 -33t64.5 -46t45.5 -51.5q43 -63 60 -142l-264 -125q-4 51 -19 90q-12 35 -37.5 63t-72.5 28q-33 0 -73 -14.5t-81 -61.5t-80 -136.5t-72 -236.5q-30 -148 -32 -240 q0 -8 -1 -14q0 -82 16 -129q17 -51 47 -69.5t63 -18.5q51 0 99 29.5t85 64.5q43 41 80 94l194 -120q-59 -84 -137 -150q-66 -57 -160 -103t-211 -46t-195.5 49t-118.5 140t-42 221z" />
<glyph unicode="D" horiz-adv-x="1122" d="M94 0l47 223h111l192 914h-110l45 209h442q246 0 333 -153q46 -82 46 -219q0 -120 -35 -282q-14 -68 -34.5 -145.5t-52 -154.5t-76 -147.5t-105.5 -124.5t-141 -87t-185 -33h-477zM508 221h102q23 0 56.5 15.5t71.5 64.5t76 143.5t73 253.5q29 136 29 220v22 q-4 88 -26 132t-50.5 55.5t-46.5 11.5h-88z" />
<glyph unicode="E" horiz-adv-x="1077" d="M184 0l285 1346h788l-45 -209h-514l-65 -318h430l-49 -225h-430l-78 -371h514l-47 -223h-789z" />
<glyph unicode="F" horiz-adv-x="1056" d="M184 0l285 1346h788l-45 -209h-516l-65 -318h432l-49 -225h-432l-123 -594h-275z" />
<glyph unicode="G" horiz-adv-x="1153" d="M213 393v14q0 126 33 281q35 164 95 290t141 211t177.5 129t202.5 44q61 0 108.5 -12.5t84.5 -33t64.5 -46t45.5 -51.5q43 -63 60 -142l-267 -125q-4 51 -18 90q-12 35 -37.5 63t-73.5 28q-33 0 -71.5 -14.5t-80.5 -61.5t-81 -136.5t-72 -236.5q-31 -147 -33 -240v-18 q0 -79 15 -125q18 -51 49 -69.5t63 -18.5q35 0 65 5t58 20l62 290h-191l50 224h466l-135 -627q-29 -25 -69.5 -49.5t-94 -46t-119 -34.5t-141.5 -13q-117 0 -195.5 49t-118.5 140t-42 222z" />
<glyph unicode="H" horiz-adv-x="1241" d="M205 0l284 1346h275l-111 -525h281l110 525h275l-285 -1346h-274l127 600h-281l-127 -600h-274z" />
<glyph unicode="I" horiz-adv-x="817" d="M84 0l47 223h186l193 914h-186l45 209h645l-45 -209h-187l-192 -914h186l-47 -223h-645z" />
<glyph unicode="J" horiz-adv-x="1038" d="M124 222q-4 28 -4 57q0 48 11 100q4 20 11.5 51t13.5 59q8 35 14 70h274q-6 -33 -14 -63q-6 -27 -11 -54.5t-9 -46.5q-8 -37 -11.5 -69.5t6 -58t32 -40t65.5 -14.5q68 0 107.5 57.5t58.5 147.5l196 928h275l-193 -908q-47 -221 -181 -338.5t-323 -117.5 q-94 0 -160.5 30.5t-106.5 84t-51 125.5z" />
<glyph unicode="K" horiz-adv-x="1120" d="M184 0l285 1346h274l-98 -461l406 479l178 -141l-451 -494l314 -635l-269 -135l-245 602l-119 -561h-275z" />
<glyph unicode="L" horiz-adv-x="1032" d="M184 0l285 1346h274l-237 -1123h551l-47 -223h-826z" />
<glyph unicode="M" horiz-adv-x="1310" d="M182 0l328 1346h287l24 -494h17l241 494h291l-242 -1346h-274l172 848h-18l-301 -584l-54 582h-18l-178 -846h-275z" />
<glyph unicode="N" horiz-adv-x="1206" d="M182 0l285 1346h291l112 -809h15l147 809h275l-285 -1346h-291l-113 823h-14l-149 -823h-273z" />
<glyph unicode="O" horiz-adv-x="1093" d="M208 347q-1 18 -1 38q0 121 37 291q39 190 102.5 321t141 211t167 116t181.5 36t165.5 -32t117.5 -110q43 -77 51 -209q1 -20 2 -41q0 -121 -37 -292q-43 -197 -105.5 -329t-140.5 -214t-166 -116.5t-180 -34.5t-167 34.5t-118 116.5t-50 214zM490 458q-2 -29 -2 -54 q0 -52 8 -88q10 -54 35.5 -77.5t60.5 -23.5q39 0 76 23.5t68.5 77t61 142.5t58.5 218q27 133 37 220q6 48 6 86q0 30 -4 53q-8 52 -34.5 73.5t-74.5 21.5q-39 0 -74.5 -23.5t-68.5 -77.5t-62.5 -141t-56.5 -212q-29 -129 -34 -218z" />
<glyph unicode="P" horiz-adv-x="1091" d="M182 0l285 1346h364q84 0 159 -21.5t127 -68.5q53 -46 75 -120q11 -37 11 -82q0 -44 -11 -96q-23 -104 -75 -183t-119.5 -131t-143.5 -77.5t-147 -25.5h-138l-114 -541h-273zM616 764h138q20 0 45.5 9t50 29.5t45 54.5t31.5 83q9 40 9 70q0 45 -20 69q-34 41 -94 41h-129 z" />
<glyph unicode="Q" horiz-adv-x="1107" d="M222 347q-1 18 -1 38q0 122 37 291q39 190 102.5 321t140.5 212t166 117t181 36t167 -32t119 -110.5t51 -210.5q1 -18 1 -38q0 -122 -37 -295q-37 -174 -92.5 -300t-120.5 -208l61 -96l-170 -127l-55 86q-53 -27 -106.5 -38t-110.5 -11q-92 0 -166 34.5t-117 116.5 t-50 214zM503 458q-2 -28 -2 -52q0 -54 8 -90q11 -54 35.5 -77.5t59.5 -23.5q25 0 47 8l-88 135l172 123l56 -84q20 53 39.5 122t37.5 157q27 133 38 220q7 50 7 88q0 29 -3 51q-9 52 -36.5 73.5t-74.5 21.5q-39 0 -75 -23.5t-68.5 -77.5t-62.5 -141t-56 -212 q-29 -129 -34 -218z" />
<glyph unicode="R" horiz-adv-x="1134" d="M182 0l285 1346h364q84 0 159 -21.5t127 -68.5q53 -46 75 -120q11 -37 11 -82q0 -44 -11 -96q-33 -152 -122 -247t-198 -138l193 -507l-252 -113l-186 588h-58l-114 -541h-273zM616 764h138q20 0 45.5 9t50 29.5t45 54.5t31.5 83q9 40 9 70q0 45 -20 69q-34 41 -94 41 h-129z" />
<glyph unicode="S" horiz-adv-x="1069" d="M178 367l271 36v-18q0 -44 8 -78q10 -35 35.5 -64.5t78.5 -29.5q61 0 103.5 45t58.5 117q4 19 4 35q1 38 -19 66q-28 40 -76 72t-106.5 64.5t-105.5 78.5q-48 46 -72 116q-14 40 -14 93q0 39 8 85q18 111 67.5 183.5t114 115.5t138 60.5t143.5 17.5q53 0 110.5 -15.5 t104.5 -56.5q47 -42 76 -116q23 -60 23 -148q0 -21 -1 -45l-278 -37q6 33 6 62q0 17 -2 32q-4 35 -22.5 65t-65.5 30q-53 0 -87 -28t-50 -104q-4 -19 -4 -36q-1 -39 19 -66q28 -39 76 -71.5t105.5 -65.5t103.5 -83q47 -50 71 -125q15 -45 15 -105q0 -39 -7 -84 q-12 -80 -57.5 -150t-111 -122t-149.5 -81.5t-172 -29.5q-76 0 -131 16t-93 44t-61.5 61.5t-35.5 70.5q-22 61 -22 134q0 29 3 59z" />
<glyph unicode="T" horiz-adv-x="808" d="M254 1137l45 209h778l-45 -209h-252l-239 -1137h-275l240 1137h-252z" />
<glyph unicode="U" horiz-adv-x="1165" d="M252 230q-2 20 -2 39q0 53 12 108l205 969h274l-196 -928q-7 -37 -13 -73q-3 -18 -3.5 -34.5t3.5 -30.5q6 -30 27 -48.5t66 -18.5t74.5 15.5t48 43t28.5 65.5t21 81l196 928h273l-205 -969q-16 -72 -52 -141.5t-96.5 -127t-143.5 -92t-194 -34.5t-179 32.5t-103 88 t-41 127.5z" />
<glyph unicode="V" horiz-adv-x="1140" d="M348 1325l289 53l35 -901h12l401 899l267 -53l-695 -1323h-184z" />
<glyph unicode="W" horiz-adv-x="1226" d="M262 0l131 1325l289 53l-92 -690h20l156 404h154l-13 -404h19l202 690l265 -53l-439 -1325h-184l-27 584h-18l-279 -584h-184z" />
<glyph unicode="X" horiz-adv-x="1140" d="M74 57l504 674l-177 526l273 115l92 -424h14l277 424l227 -112l-407 -529l215 -674l-269 -106l-135 551h-16l-369 -549z" />
<glyph unicode="Y" horiz-adv-x="1089" d="M324 1323l286 51l103 -590l350 590l264 -53l-526 -789l-113 -532h-276l112 530z" />
<glyph unicode="Z" horiz-adv-x="1120" d="M47 0l811 1137h-481l45 209h895l-809 -1123h559l-47 -223h-973z" />
<glyph unicode="[" horiz-adv-x="778" d="M31 -76l309 1458h610l-49 -227h-336l-213 -1001h336l-47 -230h-610z" />
<glyph unicode="\" horiz-adv-x="1196" d="M473 1518h244l311 -1569h-244z" />
<glyph unicode="]" horiz-adv-x="788" d="M106 -76l48 230h338l213 1001h-338l49 227h610l-309 -1458h-611z" />
<glyph unicode="^" d="M174 725l528 643h197l252 -643h-252l-147 405l-326 -405h-252z" />
<glyph unicode="_" horiz-adv-x="1343" d="M-57 -274l41 188h1341l-41 -188h-1341z" />
<glyph unicode="`" d="M492 1208l176 213l370 -207l-123 -153z" />
<glyph unicode="a" horiz-adv-x="1056" d="M144 148q-6 28 -7 62q0 42 10 93q18 90 71.5 152.5t116 101.5t124 59.5t96.5 26.5q76 16 131 19.5t74 5.5q18 53 18 96q0 35 -19.5 65.5t-72.5 30.5q-55 0 -114.5 -18.5t-108.5 -40.5q-57 -25 -115 -58l-43 207q61 37 131 68q59 25 136 46t161 21q182 0 255 -98 q48 -64 48 -161q0 -52 -14 -113q-16 -76 -41 -193t-53 -252q-14 -68 -18.5 -117t-4.5 -83q0 -39 4 -68h-256l-4 106q-33 -35 -74 -63q-35 -25 -84 -45.5t-108 -22.5h-11q-48 -1 -94 15q-52 18 -86 57t-48 101zM382 240q5 -22 17.5 -33.5t28.5 -16t33 -4.5q53 0 94 19.5 t70 44.5q35 29 59 65l37 172q-162 0 -241 -56t-95 -132q-5 -23 -5 -40q0 -10 2 -19z" />
<glyph unicode="b" horiz-adv-x="1138" d="M174 0l299 1411h250l-92 -436q20 12 51 28.5t62.5 33t63.5 27.5t56 15q19 3 38 3q41 0 84 -12q63 -17 107 -75.5t58 -166.5q4 -30 4 -65q0 -92 -27 -218q-37 -174 -99 -288t-135 -179q-72 -66 -148 -88q-56 -17 -105 -17q-17 0 -33 2q-23 2 -46 17.5t-44.5 35t-40 42 t-31.5 39.5l-22 -109h-250zM489 311q27 -33 54 -55q23 -23 50.5 -39t53.5 -16q37 0 72 29.5t64.5 76.5t53 108.5t35.5 123.5q14 63 16 121q1 12 1 23q1 43 -7 79q-10 45 -31.5 71.5t-51.5 26.5q-33 0 -70 -14.5t-67 -30.5q-37 -20 -74 -43z" />
<glyph unicode="c" horiz-adv-x="1038" d="M208 244q-12 47 -12 106q0 77 21 174q37 170 116 279.5t172 172t185 84.5q84 21 145 21h11q68 -4 118 -18t85 -31q39 -18 69 -41l-135 -213q-18 20 -45 37q-23 14 -56.5 26.5t-76.5 16.5q-10 1 -19 1q-40 1 -80 -13q-50 -16 -94.5 -55t-79 -102.5t-53.5 -153.5 q-14 -72 -14 -127q0 -15 1 -29q5 -64 28.5 -105t62.5 -59t88 -18q53 0 97 12t79 29q39 18 74 43l45 -201q-47 -27 -102 -49q-47 -18 -111.5 -36t-138.5 -22q-11 -1 -22 -1q-60 0 -128 18q-80 22 -141 83t-89 171z" />
<glyph unicode="d" horiz-adv-x="1130" d="M198 257q-4 32 -4 69q0 94 27 219q37 174 97.5 282.5t129 167t139.5 75.5q48 12 90 12q20 0 38 -3q23 -4 48 -15t51 -27.5t48.5 -33t38.5 -28.5l92 436h252l-299 -1411h-252l23 109q-18 -16 -46 -39t-58.5 -42.5t-60.5 -35t-54 -17.5q-17 -2 -35 -2q-47 1 -95 17 q-64 22 -110 87.5t-60 179.5zM458 416q-1 -16 -1 -30q0 -44 7 -79q9 -47 31.5 -76.5t59.5 -29.5q25 0 59.5 16t67.5 39q37 23 78 55l98 461q-25 23 -53 43q-25 16 -55.5 30.5t-63.5 14.5t-64.5 -26.5t-60.5 -71.5t-51.5 -102.5t-36.5 -120.5q-12 -61 -15 -123z" />
<glyph unicode="e" horiz-adv-x="1067" d="M182 246q-12 47 -12 105q0 76 20 173q37 170 107 278.5t151.5 170t166 85t147.5 23.5q117 0 188 -44q72 -43 104 -123q28 -71 27 -169v-25q-4 -114 -39 -251h-602q-4 -34 -3 -63q0 -98 40 -146q53 -64 141 -63q59 0 110.5 12t90.5 29q43 18 80 43l45 -201 q-53 -31 -115 -53q-53 -20 -121.5 -37t-146.5 -17q-70 0 -149.5 22.5t-140.5 82.5t-89 168zM485 655h326q16 55 16 103v10q-2 41 -25.5 77t-86.5 36q-80 0 -142.5 -52.5t-87.5 -173.5z" />
<glyph unicode="f" horiz-adv-x="806" d="M215 0l184 868h-174l39 185h174l8 41q14 63 42 122.5t73 104.5t108.5 72.5t147.5 27.5q53 0 101.5 -10t85.5 -20q43 -14 79 -31l-88 -172q-29 14 -59 26q-27 10 -60.5 18.5t-68.5 8.5t-63.5 -31.5t-45.5 -103.5l-10 -53h244l-39 -185h-244l-184 -868h-250z" />
<glyph unicode="g" horiz-adv-x="1107" d="M98 -111q12 57 39 95.5t56 60.5q33 25 69 39q-25 8 -43 29q-16 16 -25 45q-3 13 -3 30q0 21 6 48q8 37 26.5 68.5t42 58t47 47t39.5 32.5q-47 51 -66 123q-11 38 -11 80q0 37 8 76q16 76 59 142.5t104.5 115.5t134 77.5t150.5 28.5q98 0 164 -38l322 10l-48 -228l-137 5 q1 -14 1 -28q0 -43 -9 -85q-16 -76 -59 -143.5t-104.5 -117.5t-135.5 -79t-150 -29q-12 0 -24 1t-23 3q-12 -6 -27.5 -15t-30.5 -18.5t-25.5 -20.5t-12.5 -19q-1 -2 -1 -4q0 -21 53 -22h44q50 0 123 1h28q93 0 159 -12q75 -13 118 -42.5t54 -79.5q6 -23 6 -50q0 -32 -8 -72 q-16 -72 -62.5 -144.5t-121 -131t-176 -94t-226.5 -35.5q-84 0 -149.5 24.5t-108.5 64.5t-60 93q-11 31 -11 64q0 23 5 46zM344 -100q-2 -9 -2 -18.5t2 -18.5q4 -19 19.5 -33t44 -23.5t73.5 -9.5t89 12.5t79 33t59.5 49t32.5 61.5q4 19 4 35t-4 30q-8 27 -12 33q-2 2 -36 3 t-77 1t-82 -2t-53 -4q-35 -23 -63 -45q-25 -20 -46.5 -48t-27.5 -56zM496 652q6 -31 21 -56t41 -38t58 -13q33 0 65 13t58.5 38t45 56.5t26.5 68.5q4 21 4 40q0 47 -25 83q-34 51 -100 51t-121 -51t-71 -123q-5 -21 -5 -40q0 -15 3 -29z" />
<glyph unicode="h" horiz-adv-x="1130" d="M170 0l297 1411h250l-88 -424q35 25 102.5 57.5t147.5 38.5q23 2 44 2q121 0 171 -78q33 -52 33 -142q0 -69 -19 -160q-23 -104 -48.5 -227.5t-47.5 -229.5q-27 -125 -54 -248h-253q37 176 67 324q12 63 25.5 125.5t26 115.5t20.5 92t12 58q6 35 9 63.5t-4 49t-25.5 28.5 t-53.5 2q-31 -6 -61.5 -19.5t-58 -30.5t-50 -33.5t-34.5 -26.5l-158 -748h-250z" />
<glyph unicode="i" horiz-adv-x="663" d="M217 856l45 205h434l-225 -1061h-250l180 856h-184zM481 1280q12 57 61.5 97t108.5 40t90 -40q22 -29 23 -67q0 -15 -4 -30q-12 -59 -60.5 -99t-107.5 -40t-91 40q-23 29 -23 68q0 15 3 31z" />
<glyph unicode="j" horiz-adv-x="638" d="M-180 -344l96 209q27 -16 57 -29q27 -10 61 -18t68 -8q35 0 63 31.5t44 103.5l192 911h-184l45 205h436l-243 -1139q-12 -63 -41 -122.5t-74 -104.5t-109.5 -73t-148.5 -28q-53 0 -101.5 9.5t-82.5 21.5q-43 12 -78 31zM483 1280q12 57 61.5 97t108.5 40t90 -40 q22 -29 22 -67q0 -14 -3 -30q-12 -59 -60.5 -99t-107.5 -40t-91 40q-23 29 -23 68q0 15 3 31z" />
<glyph unicode="k" horiz-adv-x="1130" d="M180 0l299 1411h250l-141 -666l375 316h329l-540 -447l356 -614h-326l-256 455l-96 -455h-250z" />
<glyph unicode="l" horiz-adv-x="669" d="M248 285l239 1126h250l-241 -1137q-4 -18 -4 -33.5t10 -23.5t33.5 -7t64.5 19l51 -176q-31 -20 -67 -35q-31 -14 -73 -24t-89 -10q-117 0 -163 72q-26 41 -26 109q0 52 15 120z" />
<glyph unicode="m" horiz-adv-x="1695" d="M190 0l226 1061h250l-21 -94q18 14 45 33.5t60.5 37t70.5 29.5t78 16q22 2 42 2q146 0 189 -116q14 8 45 26.5t72 37t88.5 32.5t94.5 18q23 2 44 2q121 0 171 -78q33 -52 33 -142q0 -69 -19 -160q-23 -104 -48.5 -227.5t-47.5 -229.5q-27 -125 -54 -248h-252 q37 176 68 324q12 63 25.5 125.5t26 115.5t20.5 92t12 58q6 35 8 63.5t-5 49t-25.5 28.5t-53.5 2q-29 -6 -57.5 -18.5t-55 -28.5t-48 -31.5t-35.5 -27.5q-4 -10 -5.5 -22.5t-3.5 -24.5q-23 -104 -48 -227.5t-48 -229.5q-27 -125 -53 -248h-254q37 176 68 324q12 63 25 125.5 t25.5 115.5t20.5 92t13 58q6 35 9 63.5t-4.5 49t-25.5 28.5t-53 2q-31 -6 -61.5 -19.5t-58.5 -30.5t-50.5 -33.5t-34.5 -26.5l-158 -748h-250z" />
<glyph unicode="n" horiz-adv-x="1155" d="M182 0l226 1061h251l-20 -94q18 14 45 33.5t59.5 37t69.5 29.5t78 16q23 2 44 2q121 0 171 -78q33 -52 33 -142q0 -69 -19 -160q-23 -104 -48 -227.5t-48 -229.5q-27 -125 -53 -248h-252q37 176 67 324q12 63 25.5 125.5t26 115.5t20.5 92t12 58q6 35 8.5 63.5t-5 49 t-26 28.5t-52.5 2q-31 -6 -62 -19.5t-58.5 -30.5t-49 -33.5t-33.5 -26.5l-158 -748h-252z" />
<glyph unicode="o" horiz-adv-x="1099" d="M196 312q-3 28 -3 57q0 76 18 159q25 117 77 218.5t125.5 176t167 118.5t199.5 44q111 0 185.5 -44t114.5 -118.5t48 -176.5q2 -23 1 -47q0 -81 -19 -171q-25 -115 -79 -216t-129 -177t-167 -120t-190 -44q-106 0 -181 44t-116.5 119.5t-51.5 177.5zM449 397 q0 -61 16 -107t47 -73t78 -27q43 0 85 27t77.5 73t63.5 107.5t42 130.5q14 70 16 132q0 9 1 18q1 52 -13 91q-16 46 -47 72.5t-80 26.5q-47 0 -90 -26.5t-79 -72.5t-62.5 -108.5t-40.5 -132.5t-14 -131z" />
<glyph unicode="p" horiz-adv-x="1124" d="M94 -408l314 1469h249l-18 -86q20 12 51 28.5t62.5 33t63 27.5t56.5 15q19 3 38 3q41 0 84 -12q63 -17 107 -75.5t59 -166.5q4 -31 4 -67q0 -91 -27 -216q-37 -174 -99.5 -288t-135.5 -179.5t-148 -87.5q-56 -17 -105 -17q-17 0 -33 2q-23 2 -46 17.5t-44.5 35t-40 42 t-30.5 39.5l-111 -517h-250zM498 311q27 -33 53 -55q23 -23 50.5 -39t53.5 -16q37 0 72 29.5t64.5 76.5t53 108.5t36.5 123.5q14 63 16 121v20q0 45 -7 82q-9 45 -30.5 71.5t-52.5 26.5q-33 0 -70 -14.5t-67 -30.5q-37 -20 -74 -43z" />
<glyph unicode="q" horiz-adv-x="1124" d="M194 257q-4 32 -4 69q0 94 27 219q37 174 97.5 282.5t130 167t139.5 75.5q48 12 90 12q19 0 37 -3q23 -4 48 -15t52 -27.5t49.5 -33t38.5 -28.5l19 88h249l-313 -1471h-250l111 517q-20 -16 -48 -39t-57.5 -42.5t-59.5 -35t-54 -17.5q-17 -2 -35 -2q-48 0 -97 17 q-65 22 -110 87.5t-60 179.5zM454 416q-1 -16 -1 -30q0 -44 7 -79q9 -47 31.5 -76.5t59.5 -29.5q25 0 60.5 16t68.5 39q37 23 78 55l98 461q-27 23 -55 43q-25 16 -55.5 30.5t-63.5 14.5q-31 0 -63.5 -26.5t-61.5 -71.5t-51.5 -102.5t-36.5 -120.5q-12 -61 -15 -123z" />
<glyph unicode="r" horiz-adv-x="944" d="M182 0l226 1061h249l-32 -154q20 25 48.5 53.5t63.5 55t77 45t87 22.5q12 1 23 1q37 0 67 -10q39 -13 68 -30q33 -20 55 -45l-147 -245q-18 23 -41 43q-20 16 -50 30.5t-69 14.5q-61 0 -105.5 -27t-75 -68.5t-49 -93t-28.5 -100.5l-117 -553h-250z" />
<glyph unicode="s" horiz-adv-x="980" d="M121 72l123 211q31 -23 69 -41q35 -16 80 -27.5t103 -11.5q70 0 123 30.5t65 85.5q2 11 2 20q0 31 -24 51q-32 26 -85 45.5t-113.5 41t-109.5 57.5q-48 36 -74 94q-14 33 -15 76q0 34 9 76q18 86 68.5 145.5t115 94.5t137.5 50t136 15q72 0 129.5 -11t97.5 -25 q49 -16 86 -37l-122 -209q-31 20 -68 37q-33 14 -76 25.5t-90 11.5q-31 0 -59.5 -8.5t-52 -24t-39 -34.5t-15.5 -44q0 -33 36 -52.5t88 -39t111.5 -42t105.5 -62.5q47 -40 69 -100q12 -32 11 -73q0 -37 -9 -82q-16 -76 -56 -137t-100.5 -105t-138.5 -68.5t-168 -24.5 q-70 0 -132.5 14t-111.5 31q-57 20 -106 47z" />
<glyph unicode="t" horiz-adv-x="903" d="M240 868l39 185h159l58 268h252l-58 -268h258l-39 -185h-258l-114 -538q-9 -38 -9 -64q0 -22 7 -34q14 -26 55 -27q47 0 91 11t79 28q41 16 78 39l34 -203q-53 -27 -112 -49q-51 -18 -115.5 -33.5t-130.5 -15.5q-84 0 -136 27.5t-79 72.5q-27 44 -30 104q-1 10 -1 20 q0 50 13 103l118 559h-159z" />
<glyph unicode="u" horiz-adv-x="1148" d="M221 212q-1 16 -1 33q0 65 18 148q23 104 47 221t47 217q25 117 49 230h254q-39 -176 -70 -324q-14 -63 -27.5 -125.5t-24.5 -116t-19.5 -93.5t-12.5 -56q-6 -35 -7 -62.5t7 -46t28.5 -25.5t55.5 -1q31 6 59.5 18.5t55.5 27.5t47.5 29.5t32.5 24.5l160 750h249 l-225 -1061h-250l19 94q-18 -16 -45 -34.5t-60 -34t-70.5 -26.5t-76.5 -11q-68 0 -120 24.5t-83 73.5t-37 126z" />
<glyph unicode="v" horiz-adv-x="956" d="M229 1061h271l51 -684l342 684h270l-581 -1061h-215z" />
<glyph unicode="w" horiz-adv-x="1437" d="M260 1061h270l-18 -684l283 508h213l47 -514l305 690h264l-518 -1061h-213l-64 551l-317 -551h-215z" />
<glyph unicode="x" horiz-adv-x="1079" d="M57 0l455 532l-227 529h288l121 -342l269 342h278l-446 -524l225 -537h-287l-123 348l-272 -348h-281z" />
<glyph unicode="y" horiz-adv-x="1009" d="M-53 -299l123 205q23 -16 45 -27q20 -10 43.5 -18t50.5 -8q41 0 73.5 31.5t57.5 70.5q29 45 51 102l-127 1004h264l64 -651l340 651h260q-164 -293 -297 -533q-57 -102 -113.5 -203.5t-103.5 -186.5t-81 -146.5t-46 -83.5q-23 -43 -59.5 -92t-84 -91t-104.5 -69t-121 -27 q-49 0 -91 10.5t-75 24.5q-37 16 -69 37z" />
<glyph unicode="z" horiz-adv-x="950" d="M57 0l35 170l600 688h-442l43 203h772l-33 -152l-616 -690h471l-45 -219h-785z" />
<glyph unicode="{" horiz-adv-x="716" d="M143 571l25 115q45 0 73.5 10.5t49 46t39 104t43.5 187.5q20 102 59 171t104.5 109t164 56t239.5 16l-31 -149q-72 0 -115.5 -6t-71.5 -29.5t-44 -66.5t-33 -117q-18 -90 -35.5 -154.5t-38 -109.5t-47 -74t-63.5 -47q59 -25 57 -116t-41 -273q-16 -72 -17 -116 t15.5 -67.5t54 -32t101.5 -8.5l-31 -141q-160 0 -249 24.5t-127 72t-38 115t19 153.5q18 86 33.5 147.5t13.5 101t-25.5 59t-83.5 19.5z" />
<glyph unicode="|" d="M268 -594l469 2212h230l-469 -2212h-230z" />
<glyph unicode="}" horiz-adv-x="716" d="M63 -121l31 141q63 0 104.5 8.5t68 32t43 67.5t32.5 116q18 92 36.5 159.5t38 114.5t45 75t60.5 40q-31 18 -44 47t-15 74t9 109.5t30 154.5q16 74 18 117t-16.5 66.5t-60.5 29.5t-111 6l30 149q141 0 233.5 -16t140.5 -56t57.5 -108.5t-11.5 -171.5q-25 -119 -37 -187.5 t-6 -104t30 -46t71 -10.5l-25 -115q-59 0 -91 -19.5t-50.5 -59t-29.5 -101t-30 -147.5q-18 -86 -46.5 -153.5t-87 -115t-158 -72t-259.5 -24.5z" />
<glyph unicode="~" horiz-adv-x="1306" d="M139 598q57 86 127 154q59 59 143.5 107t182.5 48t158.5 -21.5t106.5 -48t90 -48t112 -21.5q66 0 115 34t79 75q37 47 60 108l168 -86q-53 -92 -123 -164q-59 -61 -145.5 -112.5t-192.5 -51.5q-78 0 -129 21.5t-99.5 48.5t-100.5 48.5t-130 21.5q-49 0 -94 -36t-80 -77 q-41 -49 -78 -111z" />
<glyph horiz-adv-x="0" />
<glyph unicode="&#xa1;" horiz-adv-x="632" d="M143 6l234 901h272l-157 -901h-349zM391 1051l64 301h301l-64 -301h-301z" />
<glyph unicode="&#xa2;" horiz-adv-x="1036" d="M247 451.5q-11 95.5 17 228.5q27 127 79 220t117.5 157.5t137.5 102.5t137 57l33 153h215l-31 -139q53 -8 92 -21.5t68 -27.5q33 -16 55 -35l-139 -213q-12 14 -31 27q-16 10 -38.5 22t-53.5 23l-137 -646q37 8 68.5 21.5t54.5 26.5q27 14 49 30l45 -202q-33 -18 -74 -37 q-35 -16 -84 -31.5t-106 -26.5l-33 -157h-215l33 157q-61 14 -116.5 50t-93.5 100.5t-49 160zM514.5 509.5q11.5 -69.5 46.5 -106.5l121 564q-51 -39 -92 -106t-64 -171q-23 -111 -11.5 -180.5z" />
<glyph unicode="&#xa3;" horiz-adv-x="1107" d="M92 133q63 53 117 109q45 47 87 105.5t54 117.5q10 47 4 91t-16 91h-150l41 201h84q4 80 27 174q18 74 62 140.5t108.5 115.5t146.5 78.5t179 29.5q68 0 121 -13t91.5 -34.5t66.5 -50t46 -57.5q43 -68 51 -154l-247 -80q0 49 -19 88q-16 33 -49 61t-98 28 q-49 0 -106.5 -34t-84.5 -112q-18 -57 -23 -100t-5 -80h348l-41 -201h-275q4 -45 -1 -101.5t-27 -133.5q-10 -35 -24.5 -64t-31.5 -49q-18 -25 -36 -43q55 12 99 7t79 -16t62.5 -23.5t49.5 -12.5q49 0 85 14.5t59 30.5q27 20 45 45l88 -158q-39 -45 -90 -80 q-43 -31 -102.5 -55t-131.5 -24q-43 0 -74.5 9t-61.5 21.5t-61.5 21.5t-72.5 9q-53 0 -100.5 -13.5t-83.5 -29.5q-43 -20 -80 -43z" />
<glyph unicode="&#xa4;" horiz-adv-x="1224" />
<glyph unicode="&#xa5;" horiz-adv-x="1181" d="M313 502l45 219h154l-150 602l287 51l103 -590l348 590l266 -53l-401 -600h168l-46 -219h-256l-106 -502h-274l106 502h-244z" />
<glyph unicode="&#xa6;" horiz-adv-x="661" d="M94 -559l170 797h230l-170 -797h-230zM385 809l170 799h229l-170 -799h-229z" />
<glyph unicode="&#xa7;" horiz-adv-x="1142" d="M184 55l138 197q31 -23 67 -39q33 -14 79 -25.5t101 -11.5q70 0 122 28.5t63 82.5q8 41 -24 64.5t-83 43t-111.5 39t-108.5 53t-73.5 88t-7.5 142.5q14 68 54 117t94 84q-29 33 -40.5 78.5t1.5 111.5q18 82 69 136t119 88t141.5 48.5t137.5 14.5q72 0 128 -11.5t97 -23.5 q47 -16 84 -35l-137 -195q-31 20 -68 35q-31 12 -73 22.5t-89 10.5q-31 0 -59.5 -7t-52 -21.5t-38 -33t-14.5 -40.5q0 -31 36 -49.5t88.5 -36t110.5 -40t103 -58t67.5 -93t4.5 -145.5q-12 -63 -47 -114.5t-86 -92.5q23 -35 30 -80t-6 -104q-16 -72 -58 -129.5t-103.5 -98.5 t-141.5 -63.5t-168 -22.5q-68 0 -131 13.5t-110 29.5q-55 18 -105 43zM592 705q0 -20 17.5 -36t45 -28t63.5 -23.5t73 -25.5q61 29 73 86q10 51 -37 76.5t-116 48.5q-49 -10 -84 -36.5t-35 -61.5z" />
<glyph unicode="&#xa8;" horiz-adv-x="1128" d="M485 1255q12 57 61.5 98.5t106.5 41.5q59 0 92 -41.5t21 -98.5t-62.5 -98t-109.5 -41q-57 0 -89 41t-20 98zM897 1255q12 57 60.5 98.5t107.5 41.5t91 -41.5t20 -98.5t-61.5 -98t-108.5 -41t-90 41t-19 98z" />
<glyph unicode="&#xa9;" horiz-adv-x="1359" d="M171 409q-24 126 7 271q31 143 109 270t185.5 221.5t235.5 148.5t261 54t238.5 -54t173 -148.5t91 -221.5t-7.5 -270q-31 -145 -107.5 -271t-184 -221.5t-236.5 -149.5t-262 -54t-238.5 54t-173 149.5t-91.5 221.5zM349 479.5q18 -94.5 66 -164t124.5 -110.5t173.5 -41 q96 0 190 41t173 110.5t135.5 163.5t78.5 201q23 106 6.5 201.5t-65.5 165t-126 110.5t-173 41t-190.5 -41t-172 -110.5t-135 -165t-80.5 -201.5t-5 -200.5zM508 692q37 174 145.5 266.5t253.5 92.5q82 0 132.5 -23.5t78.5 -52.5q33 -35 45 -76l-178 -65q-4 25 -14 47 q-10 16 -28.5 31.5t-49.5 15.5q-23 0 -49.5 -7.5t-52 -32t-50 -71.5t-41.5 -125q-16 -80 -15 -129t14.5 -76.5t34 -37t42.5 -9.5q35 0 66.5 15.5t56.5 33.5q29 23 53 52l135 -64q-37 -45 -88 -80q-43 -29 -105.5 -53.5t-141.5 -24.5q-160 0 -220.5 99.5t-23.5 273.5z" />
<glyph unicode="&#xaa;" d="M254 467l33 151h708l-32 -151h-709zM450.5 795q-8.5 39 4.5 94q12 55 44.5 94t71.5 63.5t77 37t61 16.5q47 10 79.5 12t45.5 4q10 33 10 60q0 23 -10.5 41t-45.5 18t-71.5 -11.5t-67.5 -25.5q-37 -16 -71 -35l-27 127q39 23 82 41q37 16 85 29.5t99 13.5q115 0 159 -60.5 t21 -170.5q-10 -47 -25.5 -119t-31.5 -156q-10 -41 -13 -71.5t-3 -53.5q0 -25 2 -43h-158l-2 68q-23 -20 -47 -39q-23 -16 -52.5 -28.5t-66.5 -14.5q-35 0 -65.5 10.5t-53 35t-31 63.5zM602 887q-10 -47 8.5 -58.5t36.5 -11.5q33 0 59.5 11.5t45.5 27.5q23 18 36 41l23 107 q-100 0 -149.5 -35t-59.5 -82z" />
<glyph unicode="&#xab;" horiz-adv-x="1433" d="M170 678l731 543l150 -183l-512 -360l358 -365l-227 -182zM731 678l731 543l150 -183l-512 -360l356 -365l-225 -182z" />
<glyph unicode="&#xac;" horiz-adv-x="1214" d="M184 760l43 196h1153l-123 -573h-227l80 377h-926z" />
<glyph unicode="&#xad;" horiz-adv-x="1132" d="M365 442l43 197h602l-43 -197h-602z" />
<glyph unicode="&#xae;" horiz-adv-x="1335" d="M156.5 409q-23.5 126 7.5 271q31 143 107.5 270t184 221.5t236.5 148.5t262 54t238.5 -54t173.5 -148.5t91.5 -221.5t-7.5 -270q-31 -145 -108.5 -271t-185 -221.5t-235.5 -149.5t-262 -54q-133 0 -238.5 54t-173 149.5t-91 221.5zM332.5 479.5q17.5 -94.5 67 -164 t126 -110.5t172.5 -41t190.5 41t172.5 110.5t134 163.5t79 201q23 106 6.5 201.5t-65 165t-125 110.5t-172.5 41t-190.5 -41t-173.5 -110.5t-136.5 -165t-79.5 -201.5q-23 -106 -5.5 -200.5zM492 381l139 657h176h59q53 0 102.5 -10t85.5 -32.5t52 -58.5t6 -87 q-16 -74 -71.5 -120t-120.5 -68l141 -248l-160 -54l-141 285h-37l-55 -264h-176zM748 756h88q29 0 62.5 18.5t43.5 65.5t-13.5 67.5t-62.5 20.5h-82z" />
<glyph unicode="&#xaf;" d="M457 1141l37 176h591l-36 -176h-592z" />
<glyph unicode="&#xb0;" horiz-adv-x="1155" d="M348 1090q18 86 70.5 162.5t126 133t164 89t186.5 32.5q94 0 171 -32.5t128 -89t70.5 -133t1.5 -162.5q-18 -88 -71.5 -165t-127.5 -133.5t-165 -89t-185 -32.5q-96 0 -172 32.5t-126 89t-69.5 133.5t-1.5 165zM566 998.5q9 -42.5 35 -74t66 -50t89 -18.5t97 18.5t88 50 t68.5 73.5t39.5 92q10 47 -0.5 89t-37 73.5t-66.5 50t-89 18.5t-97 -18.5t-87 -50t-66.5 -73.5t-38.5 -89q-10 -49 -1 -91.5z" />
<glyph unicode="&#xb1;" horiz-adv-x="1183" d="M25 0l41 195h1134l-41 -195h-1134zM182 731l43 195h461l94 448h213l-94 -448h461l-43 -195h-461l-96 -461h-213l96 461h-461z" />
<glyph unicode="&#xb2;" d="M358 623l37 170q82 66 150 120q59 47 110.5 91.5t67.5 56.5q29 23 51.5 46t28.5 54q6 33 -4.5 42t-24.5 11q-23 4 -43 -4t-35 -43q-8 -16 -16 -34.5t-14 -34.5q-8 -20 -17 -37l-207 43q27 78 76 139q41 53 111.5 97t179.5 44q139 0 197.5 -67.5t37.5 -161.5 q-6 -35 -23 -63.5t-40 -52t-48.5 -44t-49.5 -41.5q-25 -20 -58.5 -43.5t-64.5 -46.5q-37 -25 -72 -49h275l-41 -192h-564z" />
<glyph unicode="&#xb3;" d="M358 637l50 192q92 -12 157.5 -7t108.5 19.5t65.5 36t26.5 44.5q10 41 -23.5 55t-74.5 16q-51 0 -115 -12l27 123l135 96h-221l38 178h529l-31 -143l-180 -117q47 -10 82 -33q29 -20 49 -56t8 -95t-53 -119.5t-117 -105.5t-189.5 -68t-271.5 -4z" />
<glyph unicode="&#xb4;" d="M535 1214l456 207l84 -213l-483 -147z" />
<glyph unicode="&#xb5;" horiz-adv-x="1105" d="M-20 -424l626 1485h252l-307 -715q-14 -35 -20.5 -62.5t-1 -46t23.5 -25.5t55 -1q31 6 62.5 18.5t61.5 27.5t53.5 29.5t37.5 24.5l320 750h252l-451 -1061h-252l37 94q-23 -16 -52.5 -34.5t-65.5 -34t-75.5 -26.5t-78.5 -11h-29.5t-24.5 4l-176 -416h-247z" />
<glyph unicode="&#xb6;" horiz-adv-x="1167" d="M206 805.5q-7 66.5 11 157.5q31 143 100.5 227t158.5 127t187.5 55t186.5 12h577l-47 -225h-90l-274 -1286h-182l274 1288h-160l-274 -1288h-191l140 649q-139 -4 -240 41q-43 18 -82 50t-63.5 79t-31.5 113.5z" />
<glyph unicode="&#xb7;" d="M492 737q8 35 28.5 66t49 54.5t63.5 36.5t72 13q74 0 114.5 -49t24.5 -121q-8 -35 -28.5 -66.5t-49.5 -54t-63.5 -36t-71.5 -13.5q-72 0 -114 49.5t-25 120.5z" />
<glyph unicode="&#xb8;" d="M256 -344l61 113q45 -23 84 -35q35 -10 68 -11.5t49 21.5q31 45 10.5 67.5t-59.5 32.5q-45 10 -111 9l99 188h196l-67 -129q45 0 76 -14q27 -12 43 -44t0 -92q-12 -53 -39 -84.5t-61 -49t-72.5 -22.5t-77.5 -1q-92 8 -199 51z" />
<glyph unicode="&#xb9;" d="M446 623l46 206h139l59 283l-100 -37l-39 195l410 125l-119 -566h112l-45 -206h-463z" />
<glyph unicode="&#xba;" d="M287 467l32 151h637l-32 -151h-637zM452.5 904.5q-6.5 62.5 10.5 133.5q14 72 47 135.5t79 110.5t103.5 73.5t122.5 26.5q70 0 116 -26.5t70.5 -73.5t28.5 -110.5t-10 -135.5q-16 -72 -49 -134t-80 -109t-103.5 -74t-117.5 -27q-66 0 -113 27t-72.5 74t-32 109.5z M618 1038q-18 -86 1.5 -147.5t78.5 -61.5q53 0 100.5 61.5t65.5 147.5q18 88 -0.5 149.5t-77.5 61.5t-104 -61.5t-64 -149.5z" />
<glyph unicode="&#xbb;" horiz-adv-x="1409" d="M90 313l514 365l-360 360l227 183l502 -543l-733 -547zM649 313l514 365l-360 360l227 183l502 -543l-733 -547z" />
<glyph unicode="&#xbc;" horiz-adv-x="1538" d="M281 623l45 206h139l59 283l-100 -37l-39 195l410 125l-119 -566h112l-45 -206h-462zM324 43l1085 1341l162 -104l-1082 -1333zM868 137l293 594l189 -29l-197 -417l117 4l63 295h197l-64 -295h74l-31 -152h-73l-29 -137h-199l29 137h-369z" />
<glyph unicode="&#xbd;" horiz-adv-x="1538" d="M299 43l1087 1341l162 -104l-1081 -1333zM311 623l45 206h140l59 283l-100 -37l-39 195l409 125l-118 -566h112l-45 -206h-463zM870 -2l37 170q82 66 150 121q59 47 110.5 90t67.5 55q29 23 51.5 47.5t28.5 55.5t-4.5 40t-24.5 13q-20 4 -40.5 -4t-37.5 -43 q-8 -16 -15 -35t-15 -35q-8 -20 -17 -37l-207 41q27 78 76 139q41 53 111.5 97.5t179.5 44.5q70 0 120 -18.5t78.5 -49.5t38 -73t-1.5 -89q-6 -35 -23 -62.5t-40 -52t-48.5 -45t-49.5 -40.5q-25 -20 -58.5 -44t-64.5 -44q-37 -25 -72 -50h275l-41 -192h-564z" />
<glyph unicode="&#xbe;" horiz-adv-x="1531" d="M254 43l1085 1341l162 -104l-1081 -1333zM260 633l49 192q92 -12 159 -7t110 19.5t64.5 36t27.5 44.5q8 41 -25 55t-74 16q-49 0 -114 -12l26 123l135 96h-221l37 178h529l-31 -143l-180 -117q47 -10 82 -33q29 -20 50 -56t9 -95t-53 -119.5t-117 -106t-190.5 -68 t-272.5 -3.5zM799 137l293 594l188 -29l-197 -417l117 4l64 295h196l-63 -295h73l-30 -152h-74l-29 -137h-198l28 137h-368z" />
<glyph unicode="&#xbf;" horiz-adv-x="1179" d="M203 198.5q-8 65.5 6 131.5q25 115 88 187.5t135 130t132.5 113.5t78.5 138h277q-18 -84 -54.5 -147.5t-82.5 -112.5t-94 -88t-90 -74t-73 -68.5t-39 -74.5q-4 -23 -4 -48.5t11.5 -47t35 -36t64.5 -14.5q68 0 119 39t86 86q39 55 67 127l260 -39q-45 -119 -106.5 -202.5 t-136 -137t-160.5 -78t-178 -24.5q-113 0 -184.5 34t-110.5 87t-47 118.5zM643 1040l66 301h325l-65 -301h-326z" />
<glyph unicode="&#xc0;" horiz-adv-x="1048" d="M23 27l647 1319h274l88 -1319l-268 -68l-6 399h-320l-180 -399zM518 543h240l-2 547zM572 1509l176 213l370 -207l-123 -153z" />
<glyph unicode="&#xc1;" horiz-adv-x="1048" d="M23 27l647 1319h274l88 -1319l-268 -68l-6 399h-320l-180 -399zM518 543h240l-2 547zM576 1515l456 207l84 -213l-483 -147z" />
<glyph unicode="&#xc2;" horiz-adv-x="1048" d="M23 27l647 1319h274l88 -1319l-268 -68l-6 399h-320l-180 -399zM473 1499l416 225l319 -223l-122 -139l-248 108l-293 -108zM518 543h240l-2 547z" />
<glyph unicode="&#xc3;" horiz-adv-x="1048" d="M23 27l647 1319h274l88 -1319l-268 -68l-6 399h-320l-180 -399zM457 1448q31 66 73 119q37 45 91.5 82.5t126.5 37.5q57 0 84.5 -17t43 -36.5t31 -37t49.5 -17.5q35 0 56.5 18.5t34.5 40.5q14 27 20 62l178 -56q-39 -80 -86 -141q-41 -53 -97 -97t-128 -44 q-53 0 -84 17.5t-52.5 37t-41 36.5t-49.5 17q-23 0 -41.5 -17t-28.5 -38q-14 -23 -23 -53zM518 543h240l-2 547z" />
<glyph unicode="&#xc4;" horiz-adv-x="1048" d="M23 27l647 1319h274l88 -1319l-268 -68l-6 399h-320l-180 -399zM510 1556q12 57 61.5 98.5t106.5 41.5q59 0 92 -41.5t21 -98.5t-62.5 -98t-109.5 -41q-57 0 -89 41t-20 98zM518 543h240l-2 547zM922 1556q12 57 60.5 98.5t107.5 41.5t91 -41.5t20 -98.5t-61.5 -98 t-108.5 -41t-90 41t-19 98z" />
<glyph unicode="&#xc5;" horiz-adv-x="1048" d="M23 27l647 1319h274l88 -1319l-268 -68l-6 399h-320l-180 -399zM518 543h240l-2 547zM615.5 1402q-9.5 40 1.5 85q8 45 34.5 84t62.5 68.5t80 47t91 17.5q45 0 83 -17.5t61.5 -47t32.5 -68.5t1 -84q-10 -45 -35.5 -85t-62.5 -68.5t-82 -46t-90 -17.5q-47 0 -84 17.5 t-60.5 46t-33 68.5zM748 1487q-10 -39 11 -64.5t60 -25.5t71 25.5t42 64.5q8 37 -13.5 63.5t-60.5 26.5t-70.5 -26.5t-39.5 -63.5z" />
<glyph unicode="&#xc6;" horiz-adv-x="1185" d="M20 27l642 1319h727l-46 -209h-315l-65 -318h280l-49 -223h-281l-77 -373h315l-47 -223h-567l81 387h-188l-188 -426zM528 614h138l118 555z" />
<glyph unicode="&#xc7;" horiz-adv-x="1110" d="M217 392q-2 130 33 294t96.5 290t141 212t177 130t201.5 44q61 0 108.5 -12.5t84.5 -33t64.5 -46t45.5 -51.5q43 -63 60 -142l-264 -125q-4 51 -19 90q-12 35 -37.5 63t-72.5 28q-33 0 -73 -14.5t-81 -61.5t-80 -136.5t-72 -236.5q-31 -147 -32.5 -239.5t15.5 -143.5 t47 -69.5t63 -18.5q51 0 99 29.5t85 64.5q43 41 80 94l194 -120q-59 -84 -137 -150q-66 -57 -160 -103t-211 -46t-195.5 49t-118.5 140t-42 221zM264 -344l61 113q45 -23 84 -35q35 -10 68 -11.5t49 21.5q31 45 10.5 67.5t-59.5 32.5q-45 10 -111 9l99 188h196l-67 -129 q45 0 76 -14q27 -12 43 -44t0 -92q-12 -53 -39 -84.5t-61 -49t-72.5 -22.5t-77.5 -1q-92 8 -199 51z" />
<glyph unicode="&#xc8;" horiz-adv-x="1077" d="M184 0l285 1346h788l-45 -209h-514l-65 -318h430l-49 -225h-430l-78 -371h514l-47 -223h-789zM586 1509l176 213l370 -207l-123 -153z" />
<glyph unicode="&#xc9;" horiz-adv-x="1077" d="M184 0l285 1346h788l-45 -209h-514l-65 -318h430l-49 -225h-430l-78 -371h514l-47 -223h-789zM590 1515l456 207l84 -213l-483 -147z" />
<glyph unicode="&#xca;" horiz-adv-x="1077" d="M184 0l285 1346h788l-45 -209h-514l-65 -318h430l-49 -225h-430l-78 -371h514l-47 -223h-789zM487 1499l416 225l319 -223l-122 -139l-248 108l-293 -108z" />
<glyph unicode="&#xcb;" horiz-adv-x="1077" d="M184 0l285 1346h788l-45 -209h-514l-65 -318h430l-49 -225h-430l-78 -371h514l-47 -223h-789zM524 1556q12 57 61.5 98.5t106.5 41.5q59 0 92 -41.5t21 -98.5t-62.5 -98t-109.5 -41q-57 0 -89 41t-20 98zM936 1556q12 57 60.5 98.5t107.5 41.5t91 -41.5t20 -98.5 t-61.5 -98t-108.5 -41t-90 41t-19 98z" />
<glyph unicode="&#xcc;" horiz-adv-x="817" d="M84 0l47 223h186l193 914h-186l45 209h645l-45 -209h-187l-192 -914h186l-47 -223h-645zM461 1509l176 213l370 -207l-123 -153z" />
<glyph unicode="&#xcd;" horiz-adv-x="817" d="M84 0l47 223h186l193 914h-186l45 209h645l-45 -209h-187l-192 -914h186l-47 -223h-645zM463 1515l456 207l84 -213l-483 -147z" />
<glyph unicode="&#xce;" horiz-adv-x="817" d="M84 0l47 223h186l193 914h-186l45 209h645l-45 -209h-187l-192 -914h186l-47 -223h-645zM362 1499l416 225l319 -223l-122 -139l-248 108l-293 -108z" />
<glyph unicode="&#xcf;" horiz-adv-x="817" d="M84 0l47 223h186l193 914h-186l45 209h645l-45 -209h-187l-192 -914h186l-47 -223h-645zM397 1556q12 57 61.5 98.5t106.5 41.5q59 0 92 -41.5t21 -98.5t-62.5 -98t-109.5 -41q-57 0 -89 41t-20 98zM809 1556q12 57 60.5 98.5t107.5 41.5t91 -41.5t20 -98.5t-61.5 -98 t-108.5 -41t-90 41t-19 98z" />
<glyph unicode="&#xd0;" horiz-adv-x="1161" d="M129 -2l47 223h109l77 359h-116l41 192h116l76 363h-108l45 211h442q246 0 332 -154t12 -502q-14 -68 -35.5 -145.5t-53.5 -154.5t-76 -147.5t-105.5 -125t-142 -87t-183.5 -32.5h-477zM545 219h102q23 0 55.5 15.5t70.5 64.5t77 144.5t74 254.5q33 154 27.5 241t-27 131 t-50 55.5t-47.5 11.5h-88l-75 -365h165l-41 -192h-165z" />
<glyph unicode="&#xd1;" horiz-adv-x="1206" d="M182 0l285 1346h291l112 -809h15l147 809h275l-285 -1346h-291l-113 823h-14l-149 -823h-273zM537 1448q31 66 73 119q37 45 91.5 82.5t126.5 37.5q57 0 84.5 -17t43 -36.5t31 -37t49.5 -17.5q35 0 56.5 18.5t34.5 40.5q14 27 20 62l178 -56q-39 -80 -86 -141 q-41 -53 -97 -97t-128 -44q-53 0 -84 17.5t-52.5 37t-41 36.5t-49.5 17q-23 0 -41.5 -17t-28.5 -38q-14 -23 -23 -53z" />
<glyph unicode="&#xd2;" horiz-adv-x="1093" d="M208 347q-7 132 36 329q39 190 102.5 321t141 211t167 116t181.5 36t165.5 -32t117.5 -109.5t51.5 -209.5t-35.5 -333q-43 -197 -105.5 -329t-140.5 -214t-166 -116.5t-180 -34.5t-167 34.5t-118 116.5t-50 214zM490 458q-5 -89 5.5 -142.5t36 -77t60.5 -23.5 q39 0 76 23.5t68.5 77t61 142.5t58.5 218q27 133 37 220t2 139t-34.5 73.5t-74.5 21.5q-39 0 -74.5 -23.5t-68.5 -77.5t-62.5 -141t-56.5 -212q-29 -129 -34 -218zM594 1509l176 213l370 -207l-123 -153z" />
<glyph unicode="&#xd3;" horiz-adv-x="1093" d="M208 347q-7 132 36 329q39 190 102.5 321t141 211t167 116t181.5 36t165.5 -32t117.5 -109.5t51.5 -209.5t-35.5 -333q-43 -197 -105.5 -329t-140.5 -214t-166 -116.5t-180 -34.5t-167 34.5t-118 116.5t-50 214zM490 458q-5 -89 5.5 -142.5t36 -77t60.5 -23.5 q39 0 76 23.5t68.5 77t61 142.5t58.5 218q27 133 37 220t2 139t-34.5 73.5t-74.5 21.5q-39 0 -74.5 -23.5t-68.5 -77.5t-62.5 -141t-56.5 -212q-29 -129 -34 -218zM598 1515l456 207l84 -213l-483 -147z" />
<glyph unicode="&#xd4;" horiz-adv-x="1093" d="M208 347q-7 132 36 329q39 190 102.5 321t141 211t167 116t181.5 36t165.5 -32t117.5 -109.5t51.5 -209.5t-35.5 -333q-43 -197 -105.5 -329t-140.5 -214t-166 -116.5t-180 -34.5t-167 34.5t-118 116.5t-50 214zM490 458q-5 -89 5.5 -142.5t36 -77t60.5 -23.5 q39 0 76 23.5t68.5 77t61 142.5t58.5 218q27 133 37 220t2 139t-34.5 73.5t-74.5 21.5q-39 0 -74.5 -23.5t-68.5 -77.5t-62.5 -141t-56.5 -212q-29 -129 -34 -218zM495 1499l416 225l319 -223l-122 -139l-248 108l-293 -108z" />
<glyph unicode="&#xd5;" horiz-adv-x="1093" d="M208 347q-7 132 36 329q39 190 102.5 321t141 211t167 116t181.5 36t165.5 -32t117.5 -109.5t51.5 -209.5t-35.5 -333q-43 -197 -105.5 -329t-140.5 -214t-166 -116.5t-180 -34.5t-167 34.5t-118 116.5t-50 214zM486 1479q31 66 73 119q37 45 91.5 82.5t126.5 37.5 q57 0 84.5 -17t43 -36.5t31 -37t49.5 -17.5q35 0 56.5 18.5t34.5 40.5q14 27 20 62l178 -56q-39 -80 -86 -141q-41 -53 -97 -97t-128 -44q-53 0 -84 17.5t-52.5 37t-41 36.5t-49.5 17q-23 0 -41.5 -17t-28.5 -38q-14 -23 -23 -53zM490 458q-5 -89 5.5 -142.5t36 -77 t60.5 -23.5q39 0 76 23.5t68.5 77t61 142.5t58.5 218q27 133 37 220t2 139t-34.5 73.5t-74.5 21.5q-39 0 -74.5 -23.5t-68.5 -77.5t-62.5 -141t-56.5 -212q-29 -129 -34 -218z" />
<glyph unicode="&#xd6;" horiz-adv-x="1093" d="M208 347q-7 132 36 329q39 190 102.5 321t141 211t167 116t181.5 36t165.5 -32t117.5 -109.5t51.5 -209.5t-35.5 -333q-43 -197 -105.5 -329t-140.5 -214t-166 -116.5t-180 -34.5t-167 34.5t-118 116.5t-50 214zM490 458q-5 -89 5.5 -142.5t36 -77t60.5 -23.5 q39 0 76 23.5t68.5 77t61 142.5t58.5 218q27 133 37 220t2 139t-34.5 73.5t-74.5 21.5q-39 0 -74.5 -23.5t-68.5 -77.5t-62.5 -141t-56.5 -212q-29 -129 -34 -218zM532 1556q12 57 61.5 98.5t106.5 41.5q59 0 92 -41.5t21 -98.5t-62.5 -98t-109.5 -41q-57 0 -89 41t-20 98z M944 1556q12 57 60.5 98.5t107.5 41.5t91 -41.5t20 -98.5t-61.5 -98t-108.5 -41t-90 41t-19 98z" />
<glyph unicode="&#xd7;" horiz-adv-x="1359" d="M113 293l567 440l-381 441l186 145l381 -440l570 440l123 -145l-568 -441l379 -440l-184 -150l-381 445l-572 -445z" />
<glyph unicode="&#xd8;" horiz-adv-x="1093" d="M63 55l154 195q-14 78 -8 183.5t35 244.5q41 193 103.5 326t141 214.5t167.5 118.5t182 37q66 0 121 -16.5t100 -50.5l90 114l149 -90l-145 -182q23 -80 19.5 -195.5t-37.5 -275.5q-43 -199 -105.5 -332t-140.5 -214t-166 -114.5t-180 -33.5q-76 0 -138.5 21.5 t-109.5 70.5l-86 -109zM494 324q10 -59 35.5 -83t62.5 -24q39 0 74.5 22.5t68.5 76t62.5 141.5t58.5 221q8 37 13 69.5t12 61.5zM512 618l371 469q-23 53 -95 54q-39 0 -74.5 -24.5t-68.5 -79t-63.5 -142.5t-57.5 -217q-4 -16 -6 -30.5t-6 -29.5z" />
<glyph unicode="&#xd9;" horiz-adv-x="1165" d="M252 229.5q-6 71.5 10 147.5l205 969h274l-196 -928q-8 -37 -13.5 -73t0 -65.5t27 -48t66.5 -18.5t74.5 15.5t48 43t28.5 65.5t21 81l196 928h273l-205 -969q-16 -72 -52 -141.5t-96.5 -127t-143.5 -92t-194 -34.5t-179 32.5t-103 88t-41 127zM629 1509l176 213l370 -207 l-123 -153z" />
<glyph unicode="&#xda;" horiz-adv-x="1165" d="M252 229.5q-6 71.5 10 147.5l205 969h274l-196 -928q-8 -37 -13.5 -73t0 -65.5t27 -48t66.5 -18.5t74.5 15.5t48 43t28.5 65.5t21 81l196 928h273l-205 -969q-16 -72 -52 -141.5t-96.5 -127t-143.5 -92t-194 -34.5t-179 32.5t-103 88t-41 127zM633 1515l456 207l84 -213 l-483 -147z" />
<glyph unicode="&#xdb;" horiz-adv-x="1165" d="M252 229.5q-6 71.5 10 147.5l205 969h274l-196 -928q-8 -37 -13.5 -73t0 -65.5t27 -48t66.5 -18.5t74.5 15.5t48 43t28.5 65.5t21 81l196 928h273l-205 -969q-16 -72 -52 -141.5t-96.5 -127t-143.5 -92t-194 -34.5t-179 32.5t-103 88t-41 127zM532 1499l416 225l319 -223 l-122 -139l-248 108l-293 -108z" />
<glyph unicode="&#xdc;" horiz-adv-x="1165" d="M252 229.5q-6 71.5 10 147.5l205 969h274l-196 -928q-8 -37 -13.5 -73t0 -65.5t27 -48t66.5 -18.5t74.5 15.5t48 43t28.5 65.5t21 81l196 928h273l-205 -969q-16 -72 -52 -141.5t-96.5 -127t-143.5 -92t-194 -34.5t-179 32.5t-103 88t-41 127zM567 1556q12 57 61.5 98.5 t106.5 41.5q59 0 92 -41.5t21 -98.5t-62.5 -98t-109.5 -41q-57 0 -89 41t-20 98zM979 1556q12 57 60.5 98.5t107.5 41.5t91 -41.5t20 -98.5t-61.5 -98t-108.5 -41t-90 41t-19 98z" />
<glyph unicode="&#xdd;" horiz-adv-x="1089" d="M324 1323l286 51l103 -590l350 590l264 -53l-526 -789l-113 -532h-276l112 530zM596 1515l456 207l84 -213l-483 -147z" />
<glyph unicode="&#xde;" horiz-adv-x="1142" d="M162 -2l287 1348h274l-55 -261h90q84 0 158.5 -21.5t127 -67.5t75 -119.5t-0.5 -178.5q-23 -104 -75 -183t-119.5 -131t-143 -77.5t-147.5 -25.5h-135l-62 -283h-274zM545 504h135q20 0 46 9t50.5 29.5t45 54.5t30.5 83q23 98 -11 139t-93 41h-127z" />
<glyph unicode="&#xdf;" horiz-adv-x="1058" d="M193 0q37 174 69 332q14 68 28.5 136.5t28 132t24.5 117.5t19 91q14 72 55.5 128t98.5 94t125 58.5t137 20.5q70 0 124 -21.5t90 -61.5t49.5 -94t-1.5 -122q-16 -66 -42.5 -106.5t-55.5 -63.5q-33 -27 -70 -37q55 -18 93 -55q33 -31 54 -85t3 -140t-64.5 -147.5 t-108 -100.5t-133 -57.5t-141.5 -18.5h-51l37 182h68q45 0 85 36t56 108q10 47 3 79.5t-23.5 53t-41 30t-49.5 9.5q-27 0 -50 -1t-44 -1h-43l-104 -496h-225zM557 662h61q57 0 103.5 38.5t58.5 92.5q10 55 3 85.5t-54 30.5t-75.5 -19.5t-47 -53t-29 -78.5t-20.5 -96z" />
<glyph unicode="&#xe0;" horiz-adv-x="1056" d="M143.5 148.5q-14.5 62.5 3.5 154.5q18 90 71.5 152.5t116 101.5t124 59.5t96.5 26.5q76 16 131 19.5t74 5.5q18 53 18 96q0 35 -19.5 65.5t-72.5 30.5q-55 0 -114.5 -18.5t-108.5 -40.5q-57 -25 -115 -58l-43 207q61 37 131 68q59 25 136 46t161 21q182 0 255 -98 t34 -274q-16 -76 -41 -193t-53 -252q-14 -68 -18.5 -117t-4.5 -83q0 -39 4 -68h-256l-4 106q-33 -35 -74 -63q-35 -25 -84 -45.5t-108 -22.5q-53 -2 -104.5 15.5t-86 56.5t-49 101.5zM382 239.5q5 -22.5 17.5 -33.5t28.5 -15.5t33 -4.5q53 0 94 19.5t70 44.5q35 29 59 65 l37 172q-162 0 -241 -56t-95 -132q-8 -37 -3 -59.5zM519 1241l176 213l370 -207l-123 -153z" />
<glyph unicode="&#xe1;" horiz-adv-x="1056" d="M143.5 148.5q-14.5 62.5 3.5 154.5q18 90 71.5 152.5t116 101.5t124 59.5t96.5 26.5q76 16 131 19.5t74 5.5q18 53 18 96q0 35 -19.5 65.5t-72.5 30.5q-55 0 -114.5 -18.5t-108.5 -40.5q-57 -25 -115 -58l-43 207q61 37 131 68q59 25 136 46t161 21q182 0 255 -98 t34 -274q-16 -76 -41 -193t-53 -252q-14 -68 -18.5 -117t-4.5 -83q0 -39 4 -68h-256l-4 106q-33 -35 -74 -63q-35 -25 -84 -45.5t-108 -22.5q-53 -2 -104.5 15.5t-86 56.5t-49 101.5zM382 239.5q5 -22.5 17.5 -33.5t28.5 -15.5t33 -4.5q53 0 94 19.5t70 44.5q35 29 59 65 l37 172q-162 0 -241 -56t-95 -132q-8 -37 -3 -59.5zM527 1245l456 207l84 -213l-483 -147z" />
<glyph unicode="&#xe2;" horiz-adv-x="1056" d="M143.5 148.5q-14.5 62.5 3.5 154.5q18 90 71.5 152.5t116 101.5t124 59.5t96.5 26.5q76 16 131 19.5t74 5.5q18 53 18 96q0 35 -19.5 65.5t-72.5 30.5q-55 0 -114.5 -18.5t-108.5 -40.5q-57 -25 -115 -58l-43 207q61 37 131 68q59 25 136 46t161 21q182 0 255 -98 t34 -274q-16 -76 -41 -193t-53 -252q-14 -68 -18.5 -117t-4.5 -83q0 -39 4 -68h-256l-4 106q-33 -35 -74 -63q-35 -25 -84 -45.5t-108 -22.5q-53 -2 -104.5 15.5t-86 56.5t-49 101.5zM382 239.5q5 -22.5 17.5 -33.5t28.5 -15.5t33 -4.5q53 0 94 19.5t70 44.5q35 29 59 65 l37 172q-162 0 -241 -56t-95 -132q-8 -37 -3 -59.5zM418 1218l416 225l319 -223l-122 -139l-248 108l-293 -108z" />
<glyph unicode="&#xe3;" horiz-adv-x="1056" d="M143.5 148.5q-14.5 62.5 3.5 154.5q18 90 71.5 152.5t116 101.5t124 59.5t96.5 26.5q76 16 131 19.5t74 5.5q18 53 18 96q0 35 -19.5 65.5t-72.5 30.5q-55 0 -114.5 -18.5t-108.5 -40.5q-57 -25 -115 -58l-43 207q61 37 131 68q59 25 136 46t161 21q182 0 255 -98 t34 -274q-16 -76 -41 -193t-53 -252q-14 -68 -18.5 -117t-4.5 -83q0 -39 4 -68h-256l-4 106q-33 -35 -74 -63q-35 -25 -84 -45.5t-108 -22.5q-53 -2 -104.5 15.5t-86 56.5t-49 101.5zM382 239.5q5 -22.5 17.5 -33.5t28.5 -15.5t33 -4.5q53 0 94 19.5t70 44.5q35 29 59 65 l37 172q-162 0 -241 -56t-95 -132q-8 -37 -3 -59.5zM408 1202q31 66 73 119q37 45 91.5 82.5t126.5 37.5q57 0 84.5 -17t43 -36.5t31 -37t49.5 -17.5q35 0 56.5 18.5t34.5 40.5q14 27 20 62l178 -56q-39 -80 -86 -141q-41 -53 -97 -97t-128 -44q-53 0 -84 17.5t-52.5 37 t-41 36.5t-49.5 17q-23 0 -41.5 -17t-28.5 -38q-14 -23 -23 -53z" />
<glyph unicode="&#xe4;" horiz-adv-x="1056" d="M143.5 148.5q-14.5 62.5 3.5 154.5q18 90 71.5 152.5t116 101.5t124 59.5t96.5 26.5q76 16 131 19.5t74 5.5q18 53 18 96q0 35 -19.5 65.5t-72.5 30.5q-55 0 -114.5 -18.5t-108.5 -40.5q-57 -25 -115 -58l-43 207q61 37 131 68q59 25 136 46t161 21q182 0 255 -98 t34 -274q-16 -76 -41 -193t-53 -252q-14 -68 -18.5 -117t-4.5 -83q0 -39 4 -68h-256l-4 106q-33 -35 -74 -63q-35 -25 -84 -45.5t-108 -22.5q-53 -2 -104.5 15.5t-86 56.5t-49 101.5zM382 239.5q5 -22.5 17.5 -33.5t28.5 -15.5t33 -4.5q53 0 94 19.5t70 44.5q35 29 59 65 l37 172q-162 0 -241 -56t-95 -132q-8 -37 -3 -59.5zM444 1265q12 57 61.5 98.5t106.5 41.5q59 0 92 -41.5t21 -98.5t-62.5 -98t-109.5 -41q-57 0 -89 41t-20 98zM856 1265q12 57 60.5 98.5t107.5 41.5t91 -41.5t20 -98.5t-61.5 -98t-108.5 -41t-90 41t-19 98z" />
<glyph unicode="&#xe5;" horiz-adv-x="1056" d="M143.5 148.5q-14.5 62.5 3.5 154.5q18 90 71.5 152.5t116 101.5t124 59.5t96.5 26.5q76 16 131 19.5t74 5.5q18 53 18 96q0 35 -19.5 65.5t-72.5 30.5q-55 0 -114.5 -18.5t-108.5 -40.5q-57 -25 -115 -58l-43 207q61 37 131 68q59 25 136 46t161 21q182 0 255 -98 t34 -274q-16 -76 -41 -193t-53 -252q-14 -68 -18.5 -117t-4.5 -83q0 -39 4 -68h-256l-4 106q-33 -35 -74 -63q-35 -25 -84 -45.5t-108 -22.5q-53 -2 -104.5 15.5t-86 56.5t-49 101.5zM382 239.5q5 -22.5 17.5 -33.5t28.5 -15.5t33 -4.5q53 0 94 19.5t70 44.5q35 29 59 65 l37 172q-162 0 -241 -56t-95 -132q-8 -37 -3 -59.5zM588.5 1263q-9.5 40 1.5 85q8 45 34.5 84t62.5 68.5t80 47t91 17.5q45 0 83 -17.5t61.5 -47t32.5 -68.5t1 -84q-10 -45 -35.5 -85t-62.5 -68.5t-82 -46t-90 -17.5q-47 0 -84 17.5t-60.5 46t-33 68.5zM721 1348 q-10 -39 11 -64.5t60 -25.5t71 25.5t42 64.5q8 37 -13.5 63.5t-60.5 26.5t-70.5 -26.5t-39.5 -63.5z" />
<glyph unicode="&#xe6;" horiz-adv-x="1593" d="M138.5 148.5q-13.5 62.5 4.5 154.5q18 90 71.5 152.5t116 101.5t124 59.5t96.5 26.5q76 16 130 19.5t73 5.5q18 53 18 96q0 35 -18.5 65.5t-71.5 30.5q-55 0 -114.5 -18.5t-108.5 -40.5q-57 -25 -115 -58l-43 207q61 37 131 68q59 25 136 46t161 21q184 0 260 -106 q82 61 164 83.5t145 22.5q117 0 189 -44t104.5 -123.5t28.5 -192.5t-39 -250h-600q-10 -74 0 -126t34.5 -84t61.5 -47t80 -15q59 0 110.5 12t90.5 29q43 18 80 43l45 -203q-53 -31 -115 -53q-53 -20 -122.5 -35.5t-147.5 -15.5q-43 0 -91.5 8t-94.5 27.5t-87 52t-69 84.5 q-25 -25 -63 -54.5t-87 -57.5t-107.5 -46.5t-121.5 -18.5q-53 0 -103.5 17.5t-86 55.5t-49 100.5zM378 239.5q5 -22.5 17.5 -33.5t28.5 -15.5t31 -4.5q53 0 94 19.5t69 44.5q35 29 60 65l37 172q-160 0 -239 -56t-95 -132q-8 -37 -3 -59.5zM1024 659h324q18 61 16 113 q-2 43 -23.5 79t-85.5 36q-82 0 -143 -53.5t-88 -174.5z" />
<glyph unicode="&#xe7;" horiz-adv-x="1038" d="M208 244.5q-28 109.5 9 279.5t116 279.5t172 172t185 85t156 20.5q68 -4 118 -18t85 -31q39 -18 69 -41l-135 -213q-18 20 -45 37q-23 14 -56.5 26.5t-76.5 16.5q-49 4 -99.5 -12.5t-94.5 -55t-78.5 -102t-53.5 -153.5q-18 -92 -13 -156t28.5 -105t62.5 -59t88 -18 q53 0 97 12t79 29q39 18 74 43l45 -201q-47 -27 -102 -49q-47 -18 -111.5 -36t-138.5 -22q-70 -4 -150 17.5t-141 83t-89 171zM231 -344l61 113q45 -23 84 -35q35 -10 68 -11.5t49 21.5q31 45 10.5 67.5t-59.5 32.5q-45 10 -111 9l99 188h196l-67 -129q45 0 76 -14 q27 -12 43 -44t0 -92q-12 -53 -39 -84.5t-61 -49t-72.5 -22.5t-77.5 -1q-92 8 -199 51z" />
<glyph unicode="&#xe8;" horiz-adv-x="1067" d="M181.5 246.5q-27.5 107.5 8.5 277.5q37 170 107 278.5t151.5 170t166 85t147.5 23.5q117 0 188.5 -44t103 -123.5t27.5 -193.5t-39 -251h-602q-16 -145 37 -208.5t141 -63.5q59 0 110.5 12t90.5 29q43 18 80 43l45 -201q-53 -31 -115 -53q-53 -20 -121.5 -37t-146.5 -17 q-70 0 -149.5 22.5t-141 83t-89 168zM485 655h326q18 61 16 113q-2 41 -25.5 77t-86.5 36q-80 0 -142.5 -52.5t-87.5 -173.5zM527 1257l176 213l370 -207l-123 -153z" />
<glyph unicode="&#xe9;" horiz-adv-x="1067" d="M181.5 246.5q-27.5 107.5 8.5 277.5q37 170 107 278.5t151.5 170t166 85t147.5 23.5q117 0 188.5 -44t103 -123.5t27.5 -193.5t-39 -251h-602q-16 -145 37 -208.5t141 -63.5q59 0 110.5 12t90.5 29q43 18 80 43l45 -201q-53 -31 -115 -53q-53 -20 -121.5 -37t-146.5 -17 q-70 0 -149.5 22.5t-141 83t-89 168zM485 655h326q18 61 16 113q-2 41 -25.5 77t-86.5 36q-80 0 -142.5 -52.5t-87.5 -173.5zM531 1245l456 207l84 -213l-483 -147z" />
<glyph unicode="&#xea;" horiz-adv-x="1067" d="M181.5 246.5q-27.5 107.5 8.5 277.5q37 170 107 278.5t151.5 170t166 85t147.5 23.5q117 0 188.5 -44t103 -123.5t27.5 -193.5t-39 -251h-602q-16 -145 37 -208.5t141 -63.5q59 0 110.5 12t90.5 29q43 18 80 43l45 -201q-53 -31 -115 -53q-53 -20 -121.5 -37t-146.5 -17 q-70 0 -149.5 22.5t-141 83t-89 168zM420 1198l416 225l319 -223l-122 -139l-248 108l-293 -108zM485 655h326q18 61 16 113q-2 41 -25.5 77t-86.5 36q-80 0 -142.5 -52.5t-87.5 -173.5z" />
<glyph unicode="&#xeb;" horiz-adv-x="1067" d="M181.5 246.5q-27.5 107.5 8.5 277.5q37 170 107 278.5t151.5 170t166 85t147.5 23.5q117 0 188.5 -44t103 -123.5t27.5 -193.5t-39 -251h-602q-16 -145 37 -208.5t141 -63.5q59 0 110.5 12t90.5 29q43 18 80 43l45 -201q-53 -31 -115 -53q-53 -20 -121.5 -37t-146.5 -17 q-70 0 -149.5 22.5t-141 83t-89 168zM456 1255q12 57 61.5 98.5t106.5 41.5q59 0 92 -41.5t21 -98.5t-62.5 -98t-109.5 -41q-57 0 -89 41t-20 98zM485 655h326q18 61 16 113q-2 41 -25.5 77t-86.5 36q-80 0 -142.5 -52.5t-87.5 -173.5zM868 1255q12 57 60.5 98.5t107.5 41.5 t91 -41.5t20 -98.5t-61.5 -98t-108.5 -41t-90 41t-19 98z" />
<glyph unicode="&#xec;" horiz-adv-x="675" d="M217 856l45 205h436l-225 -1061h-252l180 856h-184zM275 1233l176 213l370 -207l-123 -153z" />
<glyph unicode="&#xed;" horiz-adv-x="675" d="M217 856l45 205h436l-225 -1061h-252l180 856h-184zM265 1230l456 207l84 -213l-483 -147z" />
<glyph unicode="&#xee;" horiz-adv-x="675" d="M217 856l45 205h436l-225 -1061h-252l180 856h-184zM233 1223l416 225l319 -223l-122 -139l-248 108l-293 -108z" />
<glyph unicode="&#xef;" horiz-adv-x="675" d="M217 856l45 205h436l-225 -1061h-252l180 856h-184zM221 1255q12 57 61.5 98.5t106.5 41.5q59 0 92 -41.5t21 -98.5t-62.5 -98t-109.5 -41q-57 0 -89 41t-20 98zM633 1255q12 57 60.5 98.5t107.5 41.5t91 -41.5t20 -98.5t-61.5 -98t-108.5 -41t-90 41t-19 98z" />
<glyph unicode="&#xf0;" />
<glyph unicode="&#xf1;" horiz-adv-x="1155" d="M182 0l226 1061h251l-20 -94q18 14 45 33.5t59.5 37t69.5 29.5t78 16q156 16 215 -76t14 -302q-23 -104 -48 -227.5t-48 -229.5q-27 -125 -53 -248h-252q37 176 67 324q12 63 25.5 125.5t26 115.5t20.5 92t12 58q6 35 8.5 63.5t-5 49t-26 28.5t-52.5 2q-31 -6 -62 -19.5 t-58.5 -30.5t-49 -33.5t-33.5 -26.5l-158 -748h-252zM461 1215q31 66 73 119q37 45 91.5 82.5t126.5 37.5q57 0 84.5 -17t43 -36.5t31 -37t49.5 -17.5q35 0 56.5 18.5t34.5 40.5q14 27 20 62l178 -56q-39 -80 -86 -141q-41 -53 -97 -97t-128 -44q-53 0 -84 17.5t-52.5 37 t-41 36.5t-49.5 17q-23 0 -41.5 -17t-28.5 -38q-14 -23 -23 -53z" />
<glyph unicode="&#xf2;" horiz-adv-x="1099" d="M195.5 312.5q-9.5 101.5 15.5 215.5q25 117 77 218.5t125.5 176t167 118.5t199.5 44q111 0 185.5 -44t114.5 -118.5t47.5 -176t-17.5 -218.5q-25 -115 -79 -216t-129 -177t-167 -120t-190 -44q-106 0 -181 44t-117 120t-51.5 177.5zM449 397q0 -61 16 -107t47 -73t78 -27 q43 0 85 27t77.5 73t63.5 107.5t42 130.5q14 70 16.5 132.5t-13 108.5t-46.5 72.5t-80 26.5q-47 0 -90 -26.5t-79 -72.5t-62.5 -108.5t-40.5 -132.5t-14 -131zM539 1245l176 213l370 -207l-123 -153z" />
<glyph unicode="&#xf3;" horiz-adv-x="1099" d="M195.5 312.5q-9.5 101.5 15.5 215.5q25 117 77 218.5t125.5 176t167 118.5t199.5 44q111 0 185.5 -44t114.5 -118.5t47.5 -176t-17.5 -218.5q-25 -115 -79 -216t-129 -177t-167 -120t-190 -44q-106 0 -181 44t-117 120t-51.5 177.5zM449 397q0 -61 16 -107t47 -73t78 -27 q43 0 85 27t77.5 73t63.5 107.5t42 130.5q14 70 16.5 132.5t-13 108.5t-46.5 72.5t-80 26.5q-47 0 -90 -26.5t-79 -72.5t-62.5 -108.5t-40.5 -132.5t-14 -131zM543 1245l456 207l84 -213l-483 -147z" />
<glyph unicode="&#xf4;" horiz-adv-x="1099" d="M195.5 312.5q-9.5 101.5 15.5 215.5q25 117 77 218.5t125.5 176t167 118.5t199.5 44q111 0 185.5 -44t114.5 -118.5t47.5 -176t-17.5 -218.5q-25 -115 -79 -216t-129 -177t-167 -120t-190 -44q-106 0 -181 44t-117 120t-51.5 177.5zM436 1198l416 225l319 -223l-122 -139 l-248 108l-293 -108zM449 397q0 -61 16 -107t47 -73t78 -27q43 0 85 27t77.5 73t63.5 107.5t42 130.5q14 70 16.5 132.5t-13 108.5t-46.5 72.5t-80 26.5q-47 0 -90 -26.5t-79 -72.5t-62.5 -108.5t-40.5 -132.5t-14 -131z" />
<glyph unicode="&#xf5;" horiz-adv-x="1099" d="M195.5 312.5q-9.5 101.5 15.5 215.5q25 117 77 218.5t125.5 176t167 118.5t199.5 44q111 0 185.5 -44t114.5 -118.5t47.5 -176t-17.5 -218.5q-25 -115 -79 -216t-129 -177t-167 -120t-190 -44q-106 0 -181 44t-117 120t-51.5 177.5zM428 1192q31 66 73 119 q37 45 91.5 82.5t126.5 37.5q57 0 84.5 -17t43 -36.5t31 -37t49.5 -17.5q35 0 56.5 18.5t34.5 40.5q14 27 20 62l178 -56q-39 -80 -86 -141q-41 -53 -97 -97t-128 -44q-53 0 -84 17.5t-52.5 37t-41 36.5t-49.5 17q-23 0 -41.5 -17t-28.5 -38q-14 -23 -23 -53zM449 397 q0 -61 16 -107t47 -73t78 -27q43 0 85 27t77.5 73t63.5 107.5t42 130.5q14 70 16.5 132.5t-13 108.5t-46.5 72.5t-80 26.5q-47 0 -90 -26.5t-79 -72.5t-62.5 -108.5t-40.5 -132.5t-14 -131z" />
<glyph unicode="&#xf6;" horiz-adv-x="1099" d="M195.5 312.5q-9.5 101.5 15.5 215.5q25 117 77 218.5t125.5 176t167 118.5t199.5 44q111 0 185.5 -44t114.5 -118.5t47.5 -176t-17.5 -218.5q-25 -115 -79 -216t-129 -177t-167 -120t-190 -44q-106 0 -181 44t-117 120t-51.5 177.5zM449 397q0 -61 16 -107t47 -73t78 -27 q43 0 85 27t77.5 73t63.5 107.5t42 130.5q14 70 16.5 132.5t-13 108.5t-46.5 72.5t-80 26.5q-47 0 -90 -26.5t-79 -72.5t-62.5 -108.5t-40.5 -132.5t-14 -131zM473 1255q12 57 61.5 98.5t106.5 41.5q59 0 92 -41.5t21 -98.5t-62.5 -98t-109.5 -41q-57 0 -89 41t-20 98z M885 1255q12 57 60.5 98.5t107.5 41.5t91 -41.5t20 -98.5t-61.5 -98t-108.5 -41t-90 41t-19 98z" />
<glyph unicode="&#xf7;" horiz-adv-x="1189" d="M162 641l41 195h1132l-41 -195h-1132zM522 432q12 55 65.5 94t119.5 39t102.5 -39t24.5 -94q-6 -29 -22.5 -52.5t-41.5 -42t-55.5 -28.5t-63.5 -10q-66 0 -102.5 39t-26.5 94zM653 1044q12 55 65.5 94.5t119.5 39.5t102.5 -39.5t24.5 -94.5t-65.5 -94t-119.5 -39 t-102.5 39t-24.5 94z" />
<glyph unicode="&#xf8;" horiz-adv-x="1099" d="M152 39l100 127q-76 156 -29 381q25 115 77 216t126 177t166 120t199 44q104 0 178 -39l69 88l150 -90l-98 -119q43 -78 50 -179t-18 -218q-25 -115 -79 -216.5t-129.5 -177t-168 -119.5t-192.5 -44q-109 0 -186 49l-72 -88zM461 428l352 440q-27 16 -70 17 q-47 0 -89 -27t-76.5 -73t-61.5 -107t-41 -131q-6 -31 -10 -60.5t-4 -58.5zM524 236q27 -27 76 -27q43 0 86 26.5t79 72.5t63.5 107.5t41.5 131.5q10 39 13.5 73.5t3.5 67.5z" />
<glyph unicode="&#xf9;" horiz-adv-x="1148" d="M221 212q-6 77 17 181t47 221t47 217q25 117 49 230h254q-39 -176 -70 -324q-14 -63 -27.5 -125.5t-24.5 -116t-19.5 -93.5t-12.5 -56q-6 -35 -7 -62.5t7 -46t28.5 -25.5t55.5 -1q31 6 59.5 18.5t55.5 27.5t47.5 29.5t32.5 24.5l160 750h249l-225 -1061h-250l19 94 q-18 -16 -45 -34.5t-60 -34t-70.5 -26.5t-76.5 -11q-68 0 -120 24.5t-83 73.5t-37 126zM564 1245l176 213l370 -207l-123 -153z" />
<glyph unicode="&#xfa;" horiz-adv-x="1148" d="M221 212q-6 77 17 181t47 221t47 217q25 117 49 230h254q-39 -176 -70 -324q-14 -63 -27.5 -125.5t-24.5 -116t-19.5 -93.5t-12.5 -56q-6 -35 -7 -62.5t7 -46t28.5 -25.5t55.5 -1q31 6 59.5 18.5t55.5 27.5t47.5 29.5t32.5 24.5l160 750h249l-225 -1061h-250l19 94 q-18 -16 -45 -34.5t-60 -34t-70.5 -26.5t-76.5 -11q-68 0 -120 24.5t-83 73.5t-37 126zM566 1241l456 207l84 -213l-483 -147z" />
<glyph unicode="&#xfb;" horiz-adv-x="1148" d="M221 212q-6 77 17 181t47 221t47 217q25 117 49 230h254q-39 -176 -70 -324q-14 -63 -27.5 -125.5t-24.5 -116t-19.5 -93.5t-12.5 -56q-6 -35 -7 -62.5t7 -46t28.5 -25.5t55.5 -1q31 6 59.5 18.5t55.5 27.5t47.5 29.5t32.5 24.5l160 750h249l-225 -1061h-250l19 94 q-18 -16 -45 -34.5t-60 -34t-70.5 -26.5t-76.5 -11q-68 0 -120 24.5t-83 73.5t-37 126zM465 1225l416 225l319 -223l-122 -139l-248 108l-293 -108z" />
<glyph unicode="&#xfc;" horiz-adv-x="1148" d="M221 212q-6 77 17 181t47 221t47 217q25 117 49 230h254q-39 -176 -70 -324q-14 -63 -27.5 -125.5t-24.5 -116t-19.5 -93.5t-12.5 -56q-6 -35 -7 -62.5t7 -46t28.5 -25.5t55.5 -1q31 6 59.5 18.5t55.5 27.5t47.5 29.5t32.5 24.5l160 750h249l-225 -1061h-250l19 94 q-18 -16 -45 -34.5t-60 -34t-70.5 -26.5t-76.5 -11q-68 0 -120 24.5t-83 73.5t-37 126zM471 1255q12 57 61.5 98.5t106.5 41.5q59 0 92 -41.5t21 -98.5t-62.5 -98t-109.5 -41q-57 0 -89 41t-20 98zM883 1255q12 57 60.5 98.5t107.5 41.5t91 -41.5t20 -98.5t-61.5 -98 t-108.5 -41t-90 41t-19 98z" />
<glyph unicode="&#xfd;" horiz-adv-x="1009" d="M-53 -299l123 205q23 -16 45 -27q20 -10 43.5 -18t50.5 -8q41 0 73.5 31.5t57.5 70.5q29 45 51 102l-127 1004h264l64 -651l340 651h260q-164 -293 -297 -533q-57 -102 -113.5 -203.5t-103.5 -186.5t-81 -146.5t-46 -83.5q-23 -43 -59.5 -92t-84 -91t-104.5 -69t-121 -27 q-49 0 -91 10.5t-75 24.5q-37 16 -69 37zM500 1237l456 207l84 -213l-483 -147z" />
<glyph unicode="&#xfe;" horiz-adv-x="1112" d="M186 -2l228 1063h252l-41 -184q281 18 396.5 -54.5t74.5 -265.5q-20 -96 -64.5 -164.5t-118 -111.5t-180 -59.5t-250.5 -10.5l-45 -213h-252zM532 436h140q39 0 82 23.5t59 95.5q12 59 -22.5 78.5t-77.5 19.5h-135z" />
<glyph unicode="&#xff;" horiz-adv-x="1009" d="M-53 -299l123 205q23 -16 45 -27q20 -10 43.5 -18t50.5 -8q41 0 73.5 31.5t57.5 70.5q29 45 51 102l-127 1004h264l64 -651l340 651h260q-164 -293 -297 -533q-57 -102 -113.5 -203.5t-103.5 -186.5t-81 -146.5t-46 -83.5q-23 -43 -59.5 -92t-84 -91t-104.5 -69t-121 -27 q-49 0 -91 10.5t-75 24.5q-37 16 -69 37zM428 1255q12 57 61.5 98.5t106.5 41.5q59 0 92 -41.5t21 -98.5t-62.5 -98t-109.5 -41q-57 0 -89 41t-20 98zM840 1255q12 57 60.5 98.5t107.5 41.5t91 -41.5t20 -98.5t-61.5 -98t-108.5 -41t-90 41t-19 98z" />
<glyph unicode="&#x152;" horiz-adv-x="1148" d="M142.5 348q-7.5 133 35.5 332q41 193 104.5 326t141.5 216t167 118.5t181 35.5q45 0 85 -7t77 -23h455l-46 -209h-313l-65 -318h280l-49 -223h-281l-77 -373h313l-47 -223h-504q-59 -14 -123 -14q-92 0 -165.5 33.5t-117.5 114.5t-51.5 214zM425 459q-5 -88 5 -141.5 t36 -76t60 -22.5h12.5t14.5 2l16 4l195 914q-6 0 -14 2q-6 0 -14.5 1t-12.5 1q-39 0 -75 -24.5t-68.5 -79t-63.5 -142.5t-57 -217q-29 -133 -34 -221z" />
<glyph unicode="&#x153;" horiz-adv-x="1716" d="M201 314.5q-8 103.5 16 220.5q25 117 77 220t126 180t167 122t199 45t178 -40t113 -110q92 88 189.5 119t171.5 31q117 0 188.5 -44t103 -126t27.5 -195.5t-41 -255.5h-602q-16 -150 37 -213t141 -63q59 0 110.5 13t90.5 30q43 18 80 43l43 -207q-53 -31 -115 -53 q-53 -20 -121.5 -37t-146.5 -17q-41 0 -86 7.5t-89 26t-84 48t-71 74.5q-76 -76 -168 -120t-190 -44q-106 0 -180 44t-115 121t-49 180.5zM452 400.5q1 -62.5 16 -108.5t46 -74t78 -28q43 0 86 28t79 74t63.5 108.5t43.5 134.5q14 72 15.5 134t-13 109t-46.5 75t-81 28 q-47 0 -90 -28t-77.5 -75t-62.5 -109.5t-42 -133.5q-16 -72 -15 -134.5zM1159 670h326q18 63 16 114q-2 43 -24.5 80t-85.5 37q-80 0 -142.5 -54t-89.5 -177z" />
<glyph unicode="&#x178;" horiz-adv-x="1089" d="M324 1323l286 51l103 -590l350 590l264 -53l-526 -789l-113 -532h-276l112 530zM530 1556q12 57 61.5 98.5t106.5 41.5q59 0 92 -41.5t21 -98.5t-62.5 -98t-109.5 -41q-57 0 -89 41t-20 98zM942 1556q12 57 60.5 98.5t107.5 41.5t91 -41.5t20 -98.5t-61.5 -98t-108.5 -41 t-90 41t-19 98z" />
<glyph unicode="&#x2c6;" d="M395 1198l416 225l319 -223l-122 -139l-248 108l-293 -108z" />
<glyph unicode="&#x2dc;" d="M371 1147q31 66 73 119q37 45 91.5 82.5t126.5 37.5q57 0 84.5 -17t43 -36.5t31 -37t49.5 -17.5q35 0 56.5 18.5t34.5 40.5q14 27 20 62l178 -56q-39 -80 -86 -141q-41 -53 -97 -97t-128 -44q-53 0 -84 17.5t-52.5 37t-41 36.5t-49.5 17q-23 0 -41.5 -17t-28.5 -38 q-14 -23 -23 -53z" />
<glyph unicode="&#x2000;" horiz-adv-x="865" />
<glyph unicode="&#x2001;" horiz-adv-x="1731" />
<glyph unicode="&#x2002;" horiz-adv-x="865" />
<glyph unicode="&#x2003;" horiz-adv-x="1731" />
<glyph unicode="&#x2004;" horiz-adv-x="577" />
<glyph unicode="&#x2005;" horiz-adv-x="432" />
<glyph unicode="&#x2006;" horiz-adv-x="288" />
<glyph unicode="&#x2007;" horiz-adv-x="288" />
<glyph unicode="&#x2008;" horiz-adv-x="216" />
<glyph unicode="&#x2009;" horiz-adv-x="346" />
<glyph unicode="&#x200a;" horiz-adv-x="96" />
<glyph unicode="&#x2010;" horiz-adv-x="1132" d="M365 442l43 197h602l-43 -197h-602z" />
<glyph unicode="&#x2011;" horiz-adv-x="1132" d="M365 442l43 197h602l-43 -197h-602z" />
<glyph unicode="&#x2012;" horiz-adv-x="1132" d="M365 442l43 197h602l-43 -197h-602z" />
<glyph unicode="&#x2013;" d="M160 434l45 215h887l-45 -215h-887z" />
<glyph unicode="&#x2014;" horiz-adv-x="1302" d="M129 434l45 215h1231l-45 -215h-1231z" />
<glyph unicode="&#x2018;" horiz-adv-x="679" d="M297 887q8 70 30.5 144.5t72 142t130 125t205.5 92.5l86 -166q-49 4 -90 -29q-35 -29 -68.5 -99.5t-46.5 -209.5h-319z" />
<glyph unicode="&#x2019;" horiz-adv-x="675" d="M260 1022q49 -6 90 29q35 29 68 98.5t47 210.5h319q-8 -72 -31.5 -145.5t-72.5 -141t-130 -125t-206 -92.5z" />
<glyph unicode="&#x201a;" d="M246 29q49 -6 90 28q35 29 68.5 98.5t46.5 211.5h319q-8 -72 -31.5 -146t-73 -141.5t-130 -124.5t-205.5 -92z" />
<glyph unicode="&#x201c;" horiz-adv-x="1026" d="M215 887q8 70 30.5 144.5t72 142t130 125t205.5 92.5l86 -166q-49 4 -90 -29q-35 -29 -68.5 -99.5t-45.5 -209.5h-320zM653 887q8 70 31 144.5t72 142t130 125t206 92.5l84 -166q-49 4 -91 -29q-35 -29 -68.5 -99.5t-43.5 -209.5h-320z" />
<glyph unicode="&#x201d;" horiz-adv-x="1026" d="M289 1018q49 -4 90 31q35 29 68.5 98.5t46.5 208.5h319q-8 -70 -30.5 -143.5t-71.5 -142.5t-130 -125t-206 -93zM727 1018q49 -4 90 31q35 29 68 98.5t45 208.5h319q-8 -70 -30.5 -143.5t-71.5 -142.5t-130 -125t-206 -93z" />
<glyph unicode="&#x201e;" horiz-adv-x="1273" d="M137 29q49 -6 90 28q35 29 69 98.5t48 211.5h320q-8 -72 -32 -146t-73 -141.5t-130 -124.5t-206 -92zM629 29q49 -6 90 28q35 29 68.5 98.5t48.5 211.5h319q-8 -72 -31.5 -146t-73 -141.5t-130 -124.5t-205.5 -92z" />
<glyph unicode="&#x2022;" d="M307 530q12 61 48 113.5t87.5 92.5t113.5 62.5t128 22.5q63 0 115.5 -22.5t87.5 -62.5t48 -92.5t1 -113.5q-12 -59 -49 -112t-87 -92t-112.5 -61.5t-126.5 -22.5q-66 0 -118 22.5t-86.5 61.5t-48 92t-1.5 112z" />
<glyph unicode="&#x2026;" horiz-adv-x="1341" d="M0 0l72 340h325l-71 -340h-326zM508 0l72 340h325l-71 -340h-326zM1016 0l71 340h326l-72 -340h-325z" />
<glyph unicode="&#x202f;" horiz-adv-x="346" />
<glyph unicode="&#x2039;" horiz-adv-x="1185" d="M328 678l731 543l149 -183l-512 -360l359 -365l-228 -182z" />
<glyph unicode="&#x203a;" horiz-adv-x="1189" d="M276 313l515 365l-361 360l227 183l502 -543l-733 -547z" />
<glyph unicode="&#x205f;" horiz-adv-x="432" />
<glyph unicode="&#x20ac;" horiz-adv-x="1196" d="M195 446l34 170h93q4 18 7 37t7 39q4 14 8 35h-90l37 170h106q86 229 232.5 350t320.5 121q123 0 195 -45t110 -98q45 -63 62 -142l-266 -127q-4 51 -19 91q-12 35 -38.5 62.5t-73.5 27.5q-25 0 -55.5 -8.5t-62.5 -34t-63.5 -72.5t-60.5 -125h346l-37 -170h-360 q-4 -10 -6.5 -18.5t-4.5 -18.5q-4 -20 -7 -37.5t-7 -36.5h361l-35 -170h-344q-4 -70 6 -114.5t28.5 -70t41 -35t47.5 -9.5q53 0 101 29.5t85 64.5q43 41 82 97l190 -121q-59 -84 -137 -150q-66 -57 -160 -103t-211 -46q-186 0 -273 120.5t-81 337.5h-108z" />
<glyph unicode="&#x2122;" horiz-adv-x="1300" d="M285 1196l39 188h501l-39 -188h-137l-86 -405h-221l86 405h-143zM723 795l131 589h227l56 -278l178 278h229l-125 -589h-180l64 264l-160 -260h-156l-41 260l-37 -264h-186z" />
<glyph unicode="&#x25fc;" horiz-adv-x="1064" d="M0 0v1065h1065v-1065h-1065z" />
<glyph unicode="&#xfb01;" horiz-adv-x="1261" d="M209 0l180 856h-174l45 205h174l6 33q14 63 42 122.5t73 104.5t108.5 72.5t147.5 27.5q53 0 102.5 -10t85.5 -20q43 -14 80 -31l-90 -172q-29 14 -59 26q-27 10 -60.5 18.5t-68.5 8.5t-62.5 -31.5t-44.5 -103.5l-8 -45h608l-225 -1061h-252l180 856h-356l-180 -856h-252z M1077 1280q12 57 62.5 97t107.5 40q59 0 91 -40t20 -97q-12 -59 -61.5 -99t-108.5 -40q-57 0 -90 40t-21 99z" />
<glyph unicode="&#xfb02;" horiz-adv-x="1323" d="M209 0l180 856h-174l45 205h174l6 33q14 63 42 122.5t74 104.5t109.5 72.5t147.5 27.5q53 0 101.5 -10t84.5 -20q43 -14 80 -31l-90 -172q-29 14 -59 26q-27 10 -60.5 18.5t-68.5 8.5t-62.5 -31.5t-44.5 -103.5l-8 -45h244l-45 -205h-244l-180 -856h-252zM901 285 l236 1112h249l-237 -1123q-4 -18 -4 -33.5t11 -23.5t33.5 -7t65.5 19l50 -176q-31 -20 -68 -35q-31 -14 -73 -24t-89 -10q-117 0 -163 71.5t-11 229.5z" />
</font>
</defs>
</svg>
